File-Portal

Ласковый Май Скачать Хиты Торрент

Рейтинг: 4.2/5.0 (61 проголосовавших)

Категория: Торрент-файлы

Описание

Скачать торрент Ласковый Май все альбомы 21 альбом! (2009)

Скачать Ласковый Май все альбомы + 21 альбом. / [2009, Шансон. Хиты СССР, MP3] - торрент

Ласковый Май все альбомы + 21 альбом.
Формат: MP3, tracks, 128kbps
Год выпуска: 2009
Страна: Россия
Жанр: Шансон. Хиты СССР
Продолжительность: 12:00:00
Описание: 001 - Белые розы
002 - Я откровенен только с тобой
003 - Лето
004 - Пусть будет ночь
005 - Ну, что же ты
006 - Седая ночь
007 - Я так жду(Медленно уходит осень
008 - Желаю счастья
009 - Вечер холодной зимы
010 - Лето обмануло нас
011 - Цветы
012 - Светлана
013 - Сказочное лето(Отзвенело отсмеялось)
014 - Южноя ночь
015 - Ты я и море
016 - Интро
017 - Розовый вечер
018 - А я так жду
019 - Телефон
020 - Кончилось все
021 - Инструментал
022 - Пусть будет ночь
023 - Взрослые
024 - Ну что же ты
025 - Интро
026 - Ты, я и море
027 - Вечер последний
028 - Незнакомая девушка
029 - Все смогу
030 - Только ты!
031 - Ну что же ты
032 - Разлука
033 - Старый лес
034 - Гадкий утенок
035 - Инструментал
036 - Вечер холодной зимы
037 - Маскарад
038 - Желаю счастья
Дальше пишу кому надо там еще 125 песен поэтому я все и не написал.
Извините все меня за это.
Доп. информация: В этом сборнике находятся все оффициальный и неоффициальные песни группы Ласковый Май.

Информация о торренте:

Размер содержимого: 694.3 MB
Скачан: 2862 раза
Статус: - Зарегистрирован на трекере: 2010-02-09 21:15

Поддержи раздачу — поставь лайк:

Как качать с торрента?

Писать комментарии на нашем торрент-трекере могут только зарегистрированные пользователи.
Зарегистрируйтесь или авторизируйтесь на сайте.

ласковый май скачать хиты торрент:

  • скачать
  • скачать
  • Другие статьи

    Андрей Разин и Ласковый Май - Все хиты (2008) FLAC, Lossless - Pop - скачать через торрент бесплатно

    Андрей Разин и Ласковый Май - Все хиты (2008)

    Трек лист:
    01. Метель В Чужом Городе (5:06)
    02. А Я (3:55)
    03. Глупые Снежинки (6:07)
    04. Я Так Жду (5:07)
    05. Рассвет (4:42)
    06. Все Напрасно (5:20)
    07. Знаешь (4:30)
    08. Мне Трудно Говорить (3:06)
    09. Седая Ночь (5:34)
    10. Бродяга Дождь (3:16)
    11. Розовый Вечер (4:19)
    12. Мальчишка Играет (4:42)
    13. Белые Розы (5:14)
    14. Осенний Парк (5:42)
    15. Дождь (4:25)
    16. Бабье Лето (3:27)

    Exact Audio Copy V0.99 prebeta 5 from 4. May 2009

    Отчёт EAC об извлечении, выполненном 30. апреля 2011, 0:35

    Андрей Разин и Ласковый Май / Все хиты

    Дисковод: PIONEER DVD-RW DVR-111D Adapter: 0 ID: 0

    Режим чтения. Достоверность
    Использование точного потока. Да
    Отключение кэша аудио. Да
    Использование указателей C2. Нет

    Коррекция смещения при чтении. 48
    Способность читать области Lead-in и Lead-out. Нет
    Заполнение пропущенных сэмплов тишиной. Да
    Удаление блоков с тишиной в начале и конце. Нет
    При вычислениях CRC использовались нулевые сэмплы. Да
    Интерфейс. Встроенный Win32-интерфейс для Win NT/2000

    Выходной формат. Внутренние WAV-операции
    Формат сэмплов. 44.100 Гц; 16 бит; стерео

    TOC извлечённого CD

    Трек | Старт | Длительность | Начальный сектор | Конечный сектор
    ---------------------------------------------------------------------
    1 | 0:00.00 | 5:06.19 | 0 | 22968
    2 | 5:06.19 | 3:55.00 | 22969 | 40593
    3 | 9:01.19 | 6:06.38 | 40594 | 68081
    4 | 15:07.57 | 5:07.19 | 68082 | 91125
    5 | 20:15.01 | 4:42.07 | 91126 | 112282
    6 | 24:57.08 | 5:20.36 | 112283 | 136318
    7 | 30:17.44 | 4:30.35 | 136319 | 156603
    8 | 34:48.04 | 3:05.60 | 156604 | 170538
    9 | 37:53.64 | 5:33.38 | 170539 | 195551
    10 | 43:27.27 | 3:16.06 | 195552 | 210257
    11 | 46:43.33 | 4:18.68 | 210258 | 229675
    12 | 51:02.26 | 4:42.18 | 229676 | 250843
    13 | 55:44.44 | 5:13.45 | 250844 | 274363
    14 | 60:58.14 | 5:41.51 | 274364 | 299989
    15 | 66:39.65 | 4:25.23 | 299990 | 319887
    16 | 71:05.13 | 3:29.71 | 319888 | 335633
    17 | 77:07.09 | 0:29.44 | 347034 | 349252

    Характеристики диапазона извлечения и сообщения об ошибках

    Имя файла E:\A.Razin.I.Laskovyj.Maj-Vse.Hity.2008.FLAC.CUE.Lossless\Андрей Разин И Ласковый Май - Все хиты.wav

    Пиковый уровень 100.0 %
    Качество диапазона 100.0 %
    CRC копии 14CF19EC
    Копирование. OK

    Ошибок не произошло

    Трек 1 нет в базе данных
    Трек 2 нет в базе данных
    Трек 3 нет в базе данных
    Трек 4 нет в базе данных
    Трек 5 нет в базе данных
    Трек 6 нет в базе данных
    Трек 7 нет в базе данных
    Трек 8 нет в базе данных
    Трек 9 нет в базе данных
    Трек 10 нет в базе данных
    Трек 11 нет в базе данных
    Трек 12 нет в базе данных
    Трек 13 нет в базе данных
    Трек 14 нет в базе данных
    Трек 15 нет в базе данных
    Трек 16 нет в базе данных

    Ни одного трека нет в базе AccurateRip

    DON'T MODIFY THIS FILE

    PERFORMER: auCDtect Task Manager, ver. 1.5.1RC4 build 1.5.1.5
    Copyright (c) 2008-2010 y-soft. All rights reserved
    http:/y-soft.org

    ANALYZER: auCDtect: CD records authenticity detector, version 0.8.2
    Copyright (c) 2004 Oleg Berngardt. All rights reserved.
    Copyright (c) 2004 Alexander Djourik. All rights reserved.

    FILE: Андрей Разин И Ласковый Май - Все хиты.flac
    Size: 618880548 Hash: 10A2F87BEB21F431160F4781D523E11D Accuracy: -m0
    Conclusion: CDDA 100%
    Signature: 965E0750198332C9A8C85CA1E674C18FE11566A9

    Ласковый май: от заката до рассвета (2016) скачать торрент в хорошем качестве HD

    Информация о фильме
    Название: Ласковый май: от заката до рассвета
    Год выхода: 2016
    Жанр: Документальный

    О фильме:
    Это был невероятный, просто фантастический взлет. Никому неизвестная группа из детдомовских пацанов, композитора-самоучки и нахрапистого продюсера-самозванца стала самой популярной в стране. Да что там, в стране, "Ласковый Май" продал билетов больше, чем сам Майкл Джексон. В чем причина феномена группы, ее главный секрет? Ведь "Ласковый Май" - это не просто группа, это начало нашего шоу-бизнеса, его рождение. Простые аккорды и еще более простые тексты хитов - но почему такое сумасшествие на стадионах, почему миллионы девчонок сходили с ума и плакали только при виде Юры Шатунова? В чем причина развала группы и как делили "Ласковый май"? Куда пропали заработанные миллионы, ведь по слухам гонорары вывозились грузовиками. Как слава и деньги ломали психику подростков из детского дома и их судьбы годы спустя.

    Страна: Россия
    Студия: т.к РенТВ
    Продолжительность: 00:47:44
    Перевод: не требуется

    Файл
    Кодек: Xvid
    Качество: SATRip
    Видео: Xvid, 704x448,

    1798 Kbps
    Звук: AC3, 2 ch, 128 Kbps
    Субтитры: нет

    Похожие новости Комментарии (0)

    Андрей Разин и Ласковый Май - Все хиты (2008) FLAC, Lossless - Pop

    Андрей Разин и Ласковый Май - Все хиты (2008) Год: 2008
    Жанр: Pop
    Продолжительность: 01:14:32
    Label: Монолит
    Catalog #: MT 715391-986-1

    Кодек: FLAC
    Битрейт: Lossless

    Трек лист:
    01. Метель В Чужом Городе (5:06)
    02. А Я (3:55)
    03. Глупые Снежинки (6:07)
    04. Я Так Жду (5:07)
    05. Рассвет (4:42)
    06. Все Напрасно (5:20)
    07. Знаешь (4:30)
    08. Мне Трудно Говорить (3:06)
    09. Седая Ночь (5:34)
    10. Бродяга Дождь (3:16)
    11. Розовый Вечер (4:19)
    12. Мальчишка Играет (4:42)
    13. Белые Розы (5:14)
    14. Осенний Парк (5:42)
    15. Дождь (4:25)
    16. Бабье Лето (3:27)


    Exact Audio Copy V0.99 prebeta 5 from 4. May 2009

    Отчёт EAC об извлечении, выполненном 30. апреля 2011, 0:35

    Андрей Разин и Ласковый Май / Все хиты

    Дисковод: PIONEER DVD-RW DVR-111D Adapter: 0 ID: 0

    Режим чтения : Достоверность
    Использование точного потока : Да
    Отключение кэша аудио : Да
    Использование указателей C2 : Нет

    Коррекция смещения при чтении : 48
    Способность читать области Lead-in и Lead-out : Нет
    Заполнение пропущенных сэмплов тишиной : Да
    Удаление блоков с тишиной в начале и конце : Нет
    При вычислениях CRC использовались нулевые сэмплы : Да
    Интерфейс : Встроенный Win32-интерфейс для Win NT/2000

    Выходной формат : Внутренние WAV-операции
    Формат сэмплов : 44.100 Гц; 16 бит; стерео

    TOC извлечённого CD

    Трек | Старт | Длительность | Начальный сектор | Конечный сектор
    ---------------------------------------------------------------------
    1 | 0:00.00 | 5:06.19 | 0 | 22968
    2 | 5:06.19 | 3:55.00 | 22969 | 40593
    3 | 9:01.19 | 6:06.38 | 40594 | 68081
    4 | 15:07.57 | 5:07.19 | 68082 | 91125
    5 | 20:15.01 | 4:42.07 | 91126 | 112282
    6 | 24:57.08 | 5:20.36 | 112283 | 136318
    7 | 30:17.44 | 4:30.35 | 136319 | 156603
    8 | 34:48.04 | 3:05.60 | 156604 | 170538
    9 | 37:53.64 | 5:33.38 | 170539 | 195551
    10 | 43:27.27 | 3:16.06 | 195552 | 210257
    11 | 46:43.33 | 4:18.68 | 210258 | 229675
    12 | 51:02.26 | 4:42.18 | 229676 | 250843
    13 | 55:44.44 | 5:13.45 | 250844 | 274363
    14 | 60:58.14 | 5:41.51 | 274364 | 299989
    15 | 66:39.65 | 4:25.23 | 299990 | 319887
    16 | 71:05.13 | 3:29.71 | 319888 | 335633
    17 | 77:07.09 | 0:29.44 | 347034 | 349252

    Характеристики диапазона извлечения и сообщения об ошибках

    Имя файла E:\A.Razin.I.Laskovyj.Maj-Vse.Hity.2008.FLAC.CUE.Lossless\Андрей Разин И Ласковый Май - Все хиты.wav

    Пиковый уровень 100.0 %
    Качество диапазона 100.0 %
    CRC копии 14CF19EC
    Копирование. OK

    Ошибок не произошло

    Трек 1 нет в базе данных
    Трек 2 нет в базе данных
    Трек 3 нет в базе данных
    Трек 4 нет в базе данных
    Трек 5 нет в базе данных
    Трек 6 нет в базе данных
    Трек 7 нет в базе данных
    Трек 8 нет в базе данных
    Трек 9 нет в базе данных
    Трек 10 нет в базе данных
    Трек 11 нет в базе данных
    Трек 12 нет в базе данных
    Трек 13 нет в базе данных
    Трек 14 нет в базе данных
    Трек 15 нет в базе данных
    Трек 16 нет в базе данных

    Ни одного трека нет в базе AccurateRip

    Скачать Ласковый май - Коллекция 51 Альбом (1988-2012) FLAC через торрент

    автор: device | 29-07-2014, 23:17 | Просмотров: 1157


    Исполнитель. Ласковый май
    Название. Коллекция [51 Альбом]
    Жанр. Pop
    Страна. СССР, РФ
    Годы. 1988-2012
    Формат/Кодек. FLAC
    Общая продолжительность. 43:37:22

    Группа была создана 6 декабря 1986 года в Оренбургской школе-интернате № 2 руководителем музыкального кружка Сергеем Кузнецовым и тринадцатилетним учеником школы Юрием Шатуновым.

    Группа начала свою сценическую карьеру в 1988 году у себя в Оренбурге в составе Сергея Кузнецова и Константина Пахомова. Бывший в то время продюсером группы «Мираж» Андрей Разин перевозит группу в Москву, где участники группы «Ласковый май» жили в Московском интернате №24 (Сколковское шоссе, 6), там же работала студия «Ласковый май».

    «Ласковый май» стал первой юношеской группой, ориентированной на подростков в СССР, которая приобрела огромную популярность не только среди подростков, но и среди людей всех возрастов. Во многом это произошло благодаря симпатии общества к участию в группе подростков из детских домов, эксплуатации в песнях темы сиротства; сыграла свою роль и грамотная раскрутка группы Андреем Разиным.

    Благодаря невероятному успеху группы, в 1989 году на пике популярности «Ласкового мая» разнообразные «клоны» группы с названием «Ласковый май» гастролировали одновременно в разных городах. В 1989 году была основана студия в которой прослушивались одаренные дети. Сам же «Ласковый май» собирал многотысячные стадионы (40-60 тысяч человек) и установил рекорд по количеству концертов в день. Количество достигало восьми концертов за день и более сорока концертов за месяц.

    Российская эстрада столкнулась с феноменом, до сих пор необъяснимым. Песни, на первый взгляд простые, оказались не по зубам многим композиторам и поэтам, которые уже давно работали в шоу-бизнесе. Попытки создания новых песен, таких, как «Розовый вечер» и «Белые розы» и другие хиты, не имели такого успеха, как и копирование самого стиля группы «Ласковый май».

    Вместе с тем «Ласковый май» был группой, оказывавшей огромное влияние на формирование жанра поп-музыки в России. Повторить феноменальный успех группы «Ласковый май» пока в нашей стране не удалось никому. По некоторым данным, каждый третий житель России хоть раз, но был на концерте группы.

    1046 kb/s 211 Mb]

    01. Белые розы [05:14]
    02. Лето [03:24]
    03. Ну что же ты [04:45]
    04. Пусть будет ночь [05:13]
    05. Седая ночь [06:04]
    06. Я откровенен только лишь с Луною [03:27]