File-Portal

Простая Наука Скачать Торрент

Рейтинг: 5.0/5.0 (277 проголосовавших)

Категория: Торрент-файлы

Описание

Скачать фильм Простая наука (2013) через торрент

Скачать фильм Простая наука (186 серий) / Simple Science [2013, документальный, WEBRip] VO - торрент

Простая наука (186 серий) / Simple Science
Перевод: Профессиональный (одноголосый), cубтитры: отсутствуют
Формат: WEBRip, AVI, XviD, MP3
Страна: США, Россия
Жанр: документальный
Продолжительность: 186 x

00:02:00 - 00:10:00
Год выпуска: 2013

Описание: Научно-популярный канал Простая наука. познавательное видео онлайн, научно-популярные фильмы для детей и видео-опыты для школы и дома.

Видео: 640x480 (1.33:1), 25 fps, XviD build 63

475 kbps avg, 0.06 bit/pixel
Аудио: 44.100 kHz, MPEG Layer 3, 2 ch,

128.00 kbps avg
Тех.данные файлов идентичны





Информация о торренте:

Размер содержимого: 1.9 GB
Скачан: 1196 раз
Статус: Проверен Зарегистрирован на трекере: 2013-12-06 19:54

Поддержи раздачу — поставь лайк:

Как качать с торрента?

Всем приятного просмотра

Оставайтесь на раздаче как можно дольше.

буду на раздаче,винт позволяет

Писать комментарии на нашем торрент-трекере могут только зарегистрированные пользователи.
Зарегистрируйтесь или авторизируйтесь на сайте.

простая наука скачать торрент:

  • скачать
  • скачать
  • Другие статьи

    Простая наука (2013) WEBRip (1-4, 6-35 и 37-42 выпуски из 80)

    Простая наука (2013) WEBRip (1-4, 6-35 и 37-42 выпуски из 80) Производство: Россия, "Карусель"
    Жанр: Детский, Развивающий, Обучающий
    Ведущий: Денис Мохов

    Описание:
    «Простая наука» — это серия занимательных научных опытов.
    Все они совершенно безопасны, и большинство из них можно повторить дома. Вы увидите сам опыт и узнаете его научное объяснение. Посмотрев программу, вы убедитесь, что наука может быть очень увлекательной!

    Продолжительность: 39 х

    00:01:40
    Качество видео: WEBRip

    Вид субтитров: Отсутствуют

    Видеокодек: MPEG-4 AVC
    Битрейт видео:

    700 Kbps
    Размер кадра: 480x360
    Аудиокодек: AAC, 2 channels
    Битрейт аудио: 93.4 Kbps


    General
    Complete name :. \Torrents\SimpleScience\01-sharik-magnit.mp4
    Format : MPEG-4
    Format profile : Base Media / Version 2
    Codec ID : mp42
    File size : 10.4 MiB
    Duration : 1mn 50s
    Overall bit rate mode : Variable
    Overall bit rate : 791 Kbps
    Encoded date : UTC 2014-01-29 14:22:17
    Tagged date : UTC 2014-01-29 14:22:18
    ©TIM : 00:02:00:00
    ©TSC : 25
    ©TSZ : 1

    Video
    ID : 1
    Format : AVC
    Format/Info : Advanced Video Codec
    Format profile : Main@L3.1
    Format settings, CABAC : Yes
    Format settings, ReFrames : 3 frames
    Codec ID : avc1
    Codec ID/Info : Advanced Video Coding
    Duration : 1mn 50s
    Bit rate mode : Variable
    Bit rate : 694 Kbps
    Maximum bit rate : 1 200 Kbps
    Width : 480 pixels
    Height : 360 pixels
    Display aspect ratio : 4:3
    Frame rate mode : Constant
    Frame rate : 25.000 fps
    Standard : PAL
    Color space : YUV
    Chroma subsampling : 4:2:0
    Bit depth : 8 bits
    Scan type : Progressive
    Bits/(Pixel*Frame) : 0.161
    Stream size : 9.11 MiB (88%)
    Language : English
    Encoded date : UTC 2014-01-29 14:22:17
    Tagged date : UTC 2014-01-29 14:22:17

    Audio
    ID : 2
    Format : AAC
    Format/Info : Advanced Audio Codec
    Format profile : LC
    Codec ID : 40
    Duration : 1mn 50s
    Bit rate mode : Variable
    Bit rate : 93.4 Kbps
    Maximum bit rate : 150 Kbps
    Channel(s) : 2 channels
    Channel positions : Front: L R
    Sampling rate : 48.0 KHz
    Compression mode : Lossy
    Stream size : 1.22 MiB (12%)
    Language : English
    Encoded date : UTC 2014-01-29 14:22:17
    Tagged date : UTC 2014-01-29 14:22:17

    01. Шарик — магнит
    02. Шарик — йог
    03. Нелопающийся воздушный шарик
    04. Шарик на воздушной привязи
    06. Живая радуга
    07. Апельсин — плотник
    08. Невероятные гвозди
    09. Живые бумажные цветы
    10. Огнеупорный шарик
    11. Надуватель для шарика
    12. Дырявый, не пропускающий воду, пакет
    13. Непроницаемая ткань
    14. Бумажная крышка
    15. Химические водоросли
    16. Фараонова змея
    17. Парящие вилки
    18. Пирамидка на ножах
    19. Тушим свечку пустотой
    20. Зажигалка из жвачки
    21. Яйцо в бутылке
    22. Лава-лампа
    23. Снег из подгузников
    24. Очень тяжелая газета
    25. Рисунки на молоке
    26. Кипение при понижении давления
    27. Свет в струе воды
    28. Переводилка из карандашей
    30. Светлячки в воде
    31. Магнитная пушка
    32. Магнитные танцы
    33. Много пены из ничего
    34. Тонут или не тонут - вот в чем вопрос
    35. Компас на воде
    37. Неразбивающаяся кружка
    38. Сердце на батарейке
    39. Самодельный платилин
    40. Океан в бутылке
    41. Три слоя жидкости
    42. Газированный напиток и молоко

    В раздаче пока отсуствуют выпуски:
    05. Весёлая регата
    29.
    36.
    и выпуски с 43 по 80

    Время раздачи: c 20:00 до 10:00 (MSK+2)

    Скачать Простая наука (2013) WEBRip (1-4, 6-35 и 37-42 выпуски из 80) торрент на

    - Простая наука (2013) WEBRip (1-4, 6-35 и 37-42 выпуски из 80) -

    Производство: Россия, "Карусель"
    Жанр: Детский, Развивающий, Обучающий
    Ведущий: Денис Мохов
    Описание:
    «Простая наука» — это серия занимательных научных опытов.
    Все они совершенно безопасны, и большинство из них можно повторить дома. Вы увидите сам опыт и узнаете его научное объяснение. Посмотрев программу, вы убедитесь, что наука может быть очень увлекательной!
    Продолжительность: 39 х

    00:01:40
    Качество видео: WEBRip
    Вид субтитров: Отсутствуют
    Видеокодек: MPEG-4 AVC
    Битрейт видео:

    700 Kbps
    Размер кадра: 480x360
    Аудиокодек: AAC, 2 channels
    Битрейт аудио: 93.4 Kbps

    Mediainfo 1 выпуска:

    General
    Complete name :. \Torrents\SimpleScience\01-sharik-magnit.mp4
    Format : MPEG-4
    Format profile : Base Media / Version 2
    Codec ID : mp42
    File size : 10.4 MiB
    Duration : 1mn 50s
    Overall bit rate mode : Variable
    Overall bit rate : 791 Kbps
    Encoded date : UTC 2014-01-29 14:22:17
    Tagged date : UTC 2014-01-29 14:22:18
    ©TIM : 00:02:00:00
    ©TSC : 25
    ©TSZ : 1
    Video
    ID : 1
    Format : AVC
    Format/Info : Advanced Video Codec
    Format profile : [email protected]
    Format settings, CABAC : Yes
    Format settings, ReFrames : 3 frames
    Codec ID : avc1
    Codec ID/Info : Advanced Video Coding
    Duration : 1mn 50s
    Bit rate mode : Variable
    Bit rate : 694 Kbps
    Maximum bit rate : 1 200 Kbps
    Width : 480 pixels
    Height : 360 pixels
    Display aspect ratio : 4:3
    Frame rate mode : Constant
    Frame rate : 25.000 fps
    Standard : PAL
    Color space : YUV
    Chroma subsampling : 4:2:0
    Bit depth : 8 bits
    Scan type : Progressive
    Bits/(Pixel*Frame) : 0.161
    Stream size : 9.11 MiB (88%)
    Language : English
    Encoded date : UTC 2014-01-29 14:22:17
    Tagged date : UTC 2014-01-29 14:22:17
    Audio
    ID : 2
    Format : AAC
    Format/Info : Advanced Audio Codec
    Format profile : LC
    Codec ID : 40
    Duration : 1mn 50s
    Bit rate mode : Variable
    Bit rate : 93.4 Kbps
    Maximum bit rate : 150 Kbps
    Channel(s) : 2 channels
    Channel positions : Front: L R
    Sampling rate : 48.0 KHz
    Compression mode : Lossy
    Stream size : 1.22 MiB (12%)
    Language : English
    Encoded date : UTC 2014-01-29 14:22:17
    Tagged date : UTC 2014-01-29 14:22:17

    Список выпусков

    01. Шарик — магнит
    02. Шарик — йог
    03. Нелопающийся воздушный шарик
    04. Шарик на воздушной привязи
    06. Живая радуга
    07. Апельсин — плотник
    08. Невероятные гвозди
    09. Живые бумажные цветы
    10. Огнеупорный шарик
    11. Надуватель для шарика
    12. Дырявый, не пропускающий воду, пакет
    13. Непроницаемая ткань
    14. Бумажная крышка
    15. Химические водоросли
    16. Фараонова змея
    17. Парящие вилки
    18. Пирамидка на ножах
    19. Тушим свечку пустотой
    20. Зажигалка из жвачки
    21. Яйцо в бутылке
    22. Лава-лампа
    23. Снег из подгузников
    24. Очень тяжелая газета
    25. Рисунки на молоке
    26. Кипение при понижении давления
    27. Свет в струе воды
    28. Переводилка из карандашей
    30. Светлячки в воде
    31. Магнитная пушка
    32. Магнитные танцы
    33. Много пены из ничего
    34. Тонут или не тонут - вот в чем вопрос
    35. Компас на воде
    37. Неразбивающаяся кружка
    38. Сердце на батарейке
    39. Самодельный платилин
    40. Океан в бутылке
    41. Три слоя жидкости
    42. Газированный напиток и молоко
    В раздаче пока отсуствуют выпуски:
    05. Весёлая регата
    29.
    36.
    и выпуски с 43 по 80

    Скриншоты: Время раздачи: c 20:00 до 10:00 (MSK+2)

    Скачать торрент Серия книг - Наука

    Свободный торрент трекер рутор орг зеркало.

    У многих в последнее время не работает рутор или руторг зеркало. многие думают, что рутор закрыли. или рутор заблокировали. Приходится искать другие торренты типа нью рутор. чтобы скачать фильмы торрент. игры или музыку. Специально для пользователей торрент ов мы создали свое зеркало рутора. Нас не заблокируют. не закроют. наше зеркало рутора крутор орг. доступно всегда. Все релизы рутора у нас появляются моментально, новинки сериалов. новики фильмов торрент. последние новинки игр для pc все это у нас имееется, и все это очень просто и быстро скачать. Скачивайте фильмы 2015 через торрент. игры torrent. книги. музыку. обои. сериалы. Не нужно больше искать где-то еще, и попадать под риск, скачивая подозрительные ехе или что-то подобное. KRUTOR.org самое надежное зеркало rutor в рунете. KRUTOR.org на данный момент одно из самых стабильных зеркалруторг трекер а. На нем вы найдете rutor org игры (рутор игры ), руторг мультики. rutor org поиск. Есть много других зеркал, на подобии rutor net. rutor org new. новый рутор. но наш torrent tracker самый стабильный и безопасный. Скачивая торренты через наш KRUTOR.orgруторг трекер вы не рискуете ничем. KRUTOR.org скачать бесплатно руторг .

    Скачать торрент Серия книг - Наука. Величайшие теории [49 книг] (2015) DJVU, FB2


    Название. Наука. Величайшие теории
    Автор. разные
    Издательство. Де Агостини
    Год издания. 2015
    Язык. русский
    Формат. DjVu, FB2
    Страниц. 8136

    Наука. Величайшие теории - серия книг о великих научных идеях и теориях, а также об их авторах. Почему мир таков? Этим вопросом человечество задается с начала времен. Наука — попытка на него ответить. Закон всемирного тяготения, теория относительности, теория чисел, квантовая. со всеми этими и многими другими научными теориями вы сможете познакомиться на страницах этой увлекательной коллекции! Проникнитесь духом открытий самых светлых умов всех времен: Ньютона, Эйнштейна, Планка, Гейзенберга, Архимеда. Проект подготовлен под руководством и при содействии ведущих мировых ученых.
    Добавлены 3 книги:
    Книга 47. Фишер. Статистический вывод
    Книга 48. Паули. Спин
    Книга 49. Ландау. Сверхтекучесть

    Простая наука (2013) WEBRip (1-4, 6-35 и 37-42 выпуски из 80) скачать через торрент бесплатно

    Простая наука (2013) WEBRip (1-4, 6-35 и 37-42 выпуски из 80)

    Производство: Россия, "Карусель"
    Жанр: Детский, Развивающий, Обучающий
    Ведущий: Денис Мохов

    Описание:
    «Простая наука» — это серия занимательных научных опытов.
    Все они совершенно безопасны, и большинство из них можно повторить дома. Вы увидите сам опыт и узнаете его научное объяснение. Посмотрев программу, вы убедитесь, что наука может быть очень увлекательной!

    Продолжительность: 39 х

    00:01:40
    Качество видео: WEBRip

    Вид субтитров: Отсутствуют

    700 Kbps
    Размер кадра: 480x360
    Аудиокодек: AAC, 2 channels
    Битрейт аудио: 93.4 Kbps

    General
    Complete name. \Torrents\SimpleScience\01-sharik-magnit.mp4
    Format. MPEG-4
    Format profile. Base Media / Version 2
    Codec ID. mp42
    File size. 10.4 MiB
    Duration. 1mn 50s
    Overall bit rate mode. Variable
    Overall bit rate. 791 Kbps
    Encoded date. UTC 2014-01-29 14:22:17
    Tagged date. UTC 2014-01-29 14:22:18
    ©TIM. 00:02:00:00
    ©TSC. 25
    ©TSZ. 1

    Video
    ID. 1
    Format. AVC
    Format/Info. Advanced Video Codec
    Format profile.
    Format settings, CABAC. Yes
    Format settings, ReFrames. 3 frames
    Codec ID. avc1
    Codec ID/Info. Advanced Video Coding
    Duration. 1mn 50s
    Bit rate mode. Variable
    Bit rate. 694 Kbps
    Maximum bit rate. 1 200 Kbps
    Width. 480 pixels
    Height. 360 pixels
    Display aspect ratio. 4:3
    Frame rate mode. Constant
    Frame rate. 25.000 fps
    Standard. PAL
    Color space. YUV
    Chroma subsampling. 4:2:0
    Bit depth. 8 bits
    Scan type. Progressive
    Bits/(Pixel*Frame). 0.161
    Stream size. 9.11 MiB (88%)
    Language. English
    Encoded date. UTC 2014-01-29 14:22:17
    Tagged date. UTC 2014-01-29 14:22:17

    Audio
    ID. 2
    Format. AAC
    Format/Info. Advanced Audio Codec
    Format profile. LC
    Codec ID. 40
    Duration. 1mn 50s
    Bit rate mode. Variable
    Bit rate. 93.4 Kbps
    Maximum bit rate. 150 Kbps
    Channel(s). 2 channels
    Channel positions. Front: L R
    Sampling rate. 48.0 KHz
    Compression mode. Lossy
    Stream size. 1.22 MiB (12%)
    Language. English
    Encoded date. UTC 2014-01-29 14:22:17
    Tagged date. UTC 2014-01-29 14:22:17

    01. Шарик — магнит
    02. Шарик — йог
    03. Нелопающийся воздушный шарик
    04. Шарик на воздушной привязи
    06. Живая радуга
    07. Апельсин — плотник
    08. Невероятные гвозди
    09. Живые бумажные цветы
    10. Огнеупорный шарик
    11. Надуватель для шарика
    12. Дырявый, не пропускающий воду, пакет
    13. Непроницаемая ткань
    14. Бумажная крышка
    15. Химические водоросли
    16. Фараонова змея
    17. Парящие вилки
    18. Пирамидка на ножах
    19. Тушим свечку пустотой
    20. Зажигалка из жвачки
    21. Яйцо в бутылке
    22. Лава-лампа
    23. Снег из подгузников
    24. Очень тяжелая газета
    25. Рисунки на молоке
    26. Кипение при понижении давления
    27. Свет в струе воды
    28. Переводилка из карандашей
    30. Светлячки в воде
    31. Магнитная пушка
    32. Магнитные танцы
    33. Много пены из ничего
    34. Тонут или не тонут - вот в чем вопрос
    35. Компас на воде
    37. Неразбивающаяся кружка
    38. Сердце на батарейке
    39. Самодельный платилин
    40. Океан в бутылке
    41. Три слоя жидкости
    42. Газированный напиток и молоко

    В раздаче пока отсуствуют выпуски:
    05. Весёлая регата
    29.
    36.
    и выпуски с 43 по 80

    Время раздачи: c 20:00 до 10:00 (MSK+2)