File-Portal

Rob Tognoni Дискография Скачать Торрент

Рейтинг: 5.0/5.0 (79 проголосовавших)

Категория: Торрент-файлы

Описание

Rob Tognoni

Исполнитель: Роб Тоньони
Альбом: Discography
Год выпуска: 1995-2014
Жанр: Rock, blues, power blues rock, modern electric blues

О музыке: Robert John Tognoni (Тоньони) родился в Улверстоне, на северо-западном побережье Тасмании в 1960 году, в семье итальянских эмигрантов. детство RJT было достаточно далеким от музыки, кроме как пения его матери в кругу семьи и ее спектаклях пантомимы "Al Jolson" в местных залах сообщества. В 60-е Тасмания была в глубокой изоляции и вплоть до 70-х Blues не был признан массами, исключением был country и gospel музыка.


Примерно в 1972 году RJT начал слушать записи старшей сестры и открыл для себя все разнообразие блюза от BB KIng, Billy Thorpe And The Aztecs, Hendrix, Grand Funk Railroad, Tony Joe White до Elton'a John'a и Slade. RJT не делал различий blues, blues rock или pop. все это было здорово слушать, все это было к месту.

В начале 1974 года RJT испытал сильный удар, который глубоко повлияло на него. Его отец итальянец иммигрант был сбит автомобилем, и погиб. Вскоре после этого, RJT чтоб избежать депрессии по поводу смерти отца увлекся гитарой.

Решающим моментом в музыкальной жизни RJT был случай в 14 летнем возрасте, когда он увидел выступление AC / DC, относительно новой группы на сцене, гастролирующей с материка Австралия. RJT просто не верил тому что слышал. это было просто невероятно сила, мощь, напор и улетный /высокий заряд гитар.

RJT начал воспроизводить эти основные простые аккорды мощи, что прославили этот влиятельный коллектив. Но что-то еще разрабатывалось помимо этого. больше, чем просто аккорды мощи. Эмоционально чувственный блюз становился все более очевидным в его игре, а несколько лет спустя местный журналист писал
"Rob может стать одним из лучших блюз гитаристов в мире, если получит шанс прорваться. "
Поглощенный обучением игры на гитаре, но так чтоб это не мешало школе, RJT 70-е провел в джемах с одноклассниками и с любым другим кто изъявлял желания джемовать.
Когда директор средней школы спросил RJT, какую карьеру он выберет. RJT тут-же ответил. "Гитарист".

1977 - 1992
После окончания школы в 1976 году, RJT занимался разной работой, от упаковщика продуктов, бульдозерист до чертежника геолога. В 1977 году он написал свою первую песню, Jim Beam Blues которая оказалась одной из самых любимых и живучих песен и включённой в сет лист выступлений и по сию пору.

В 1983 году, через год после женитьбы на Leonnie и рождения их единственной дочери Анастасии, RJT решил создать группу с намерением писать свои песни и играть на гитаре в своем собственном стиле.

RJT и несколько местных музыкантов объединяются как Skidrow Boys исполняя музыку навеянную Jimi Hendrix, AC / DC и блюз мастеров таких как BB Kimg. Группа использовала всякую возможность играть, выступая в клубах по всей Тасмании, но по истечении 2 лет RJT почувствовал необходимость двигаться дальше, развивать свои навыки гитариста, и получить столь необходимые опыт, игры оттачивая свой стиль, уровень мастерства достигшего на сегодняшний день.

В конце 1985 года RJT переехал в Мельбурн и сумел устроиться на работу в гастролирующий cover band играющий поп материал чартов. Не имея возможности исполнять свою музыку сподвигло RJT покинуть cover band при первой же возможности, как только было найдено место куда податься. Замена была найдена в штате Queensland так RJT и его семья обосновались в тростника растущего города Nambour.

На этом этапе своей карьеры RJT никогда не пел и был в отчаянии, когда сформировав новую группу Outlaws они не смогли найти подходящего певца-исполнителя.

Через 4 месяца своих выступлений Outlaws собрал не хилый урожай из наград, на 20-м ежегодном Queensland Rock Awards в Roxy в Brisbane в конце 1986 года в трех категориях, лучший гитарист, лучший барабанщик и лучшая группа. RJT и группа приобрели репутацию не терпимых к херне, и отказавшихся поклонятся модным тенденциям индустрии. это только увеличило количество поклонников группы.

В конце 1989 года Outlaws находились в Melbourne и были приглашены культовой австралийской группой The Angels (Angel City) чтобы те сделали первую демо запись песни RJT I Got You - You Got Me для EP релиза The Angels вышедшего под названием The Dogs Are Talking в Мае 1990 где также записаны The Hurricanes и вновь собраные Baby Animals. Перед самым выходом EP'шки Outlaws меняет свое название на Desert Cats.

Отыграв аншлаговые концерты, 4 недельный национальный тур группа Desert Cats достигла # 7-го места в австралийских чартах Mainstream'a. Релиз получил золотой статус. От менеджера Suze DeMarchi RJT получил предложение сформировать Baby Animals. Веря в свою собственную музыку, RJT отклонил это предложение.

Desert Cats распались из-за плохого ведения дел со стороны менеджмента. Пытаясь собрать то что ещё есть, RJT снова собирает Outlaws с новым составом, но группа не смогла получить достаточного внимания промышленности поэтому окончательно была расформирована последний раз в 1992 году. Во время своей деятельности группа играла со многими великими включая Lonnie Mack, Joe Walsh и даже Roy Buchanan'ом.

1993 — 1994
После роспуска Outlaws, RJT решил вернуться в штате Квинсленд, где он играл в ресторанах на акустической гитаре, последующие годы цепляясь за жизнь.

"Я жил в Квинсленде играл в ресторанах, чтобы заработать себе на жизнь, проведя годы мотаясь по всей Австралии пытается обеспечить долгосрочную сделку на запись с лейбом, который действительно верил бы в то, что я делаю. Мне позвонил старый приятель. Mark McCormack в Мельбурне (около 2000 км к югу) из студия звукозаписи. Он попросил меня приехать в Мельбурн, чтобы записать пару песен бесплатно. Mark даже заплатил за билет на автобус.

Мне нужны были две новые песни, так что в течение недели, я написал Good Die Young (Песня о моем покойном отце) и веселого вида бесшабашную песню под названием Itty Bitty Mama. По телефону Я организовал несколько других приятелей из Мельбурна, для игры со мной в студии Mark'а.

Мы записали песни в течение двух дней, и я отправился обратно в Квинсленде с копией записи. У меня всегда была сильная вера в то, что я делаю, но надежда, начинала исчезать, становилась все более призрачной.

За два года до этого, я видел по телевизору, как австралийский Slide гитарист по имени Dave Hole получил контракт в US на запись с Alligator Records. Я был так взволнован, что кто-то из Австралии прорвался получив контракт - и он это заслужил. Я написал ему письмо с / о телевизионной трансляции, чтобы поздравить его. Dave получил моё письмо и написал мне в ответ. Два года спустя, почти отчаившись я послал кассету с "Good Die Young" и "Itty Bitty Mama" Dave'у с письмом что он послал мне 2 года ранее. он вспомнил. и позвонил мне. Dave сказал, что отправляется в тур по Европе, и собирается представить эти две песни его звукозаписывающей компании

Через два месяца. я получил телефонный звонок от лейбла, предложившего мне сделку. С тех пор я выпустил с ними 4 альбома и гастролирую ежегодно по Европе.

Я пригласил Mark'а (McCormack) звукоинженером на свой первый альбом, и со-продюсером на второй. оплачивая ему проезд! "

В 1994-м соотечественник RJT –Dave Hole, помог RJT выйти на европейский рынок заключением контракта на запись с Provogue/Mascot Records в Нидерландах. Он же и спродюсировал дебютный альбом " The Stones And Colours", ставший интернациональным. Первые европейские гастроли музыкант совершил в феврале 1996-го, а в июле был тепло принят слушателями и местной прессой на Midtfyns фестивале в Дании. Второй альбом "Headstrong"января 1997-го был еще успешнее, а гастроли проходили вместе со Стингом.

В 1998 –м RJT выступает на фестивалях в Германии и Австрии, а в Бельгии записывает и выпускает концертный альбом " Live At The Twilight", закрепив его европейскими ноябрьскими гастролями. Очередной"Monkeygrinder"выходит в апреле 2001-го. RJT гастролирует по Европе классическом power-trio и устанавливает рекорд - "27 концертов за 28 дней". Через год у RJT появляется собственный лейбл Electric-Renegade, на котором лимитированным тиражом музыкант выпускает очередной альбом "Retro Shakin". Успешные выступления на Kwadendamme Blues Фестивале в Нидерландах, участие в радиошоу в Швеции, а также 'гитарных дуэлях "с фронтменом датской группы DAD - Якобом Бинзером, способствуют попаданию имени RJT в список "национальных героев Австралии", покоривших "старый свет".

Новыми дистрибьюторами альбомов RJT в Европе становятся лейблы Dixiefrog, Provogue и Blues Boulevard Records, (Music Avenue) выпустившие очередные 4 альбома музыканта. Новый альбом RJT "2010db" 2009 -го вышел на Music Avenue и закреплен апрельскими гастролями по Великобритании 2010 - го, 12-го апреля Тогнони вернулся на родину в Австралию. Гастрольный тур продолжится 19 августа во Франции…….

Нажмите чтобы закрыть спойлер: Знаете ли вы


1995 - Stones And Colours /Provogue PRD 70832/
01. Dirty Occupation (04:20)
02. The Good Die Young (03:57)
03. This Is Love (03:41)
04. When I'm Alone (03:50)
05. Itty Bitty Mama (04:27)
06. Black Chair (02:39)
07. Inside Your Window (04:11)
08. Crossword Blues (05:18)
09. Lil' Melody (03:01)
10. The Sinner (03:59)
11. Bad Girl (03:07)
12. Don't Take Me (06:49)

1997 - Headstrong /Agat Company Ltd./
01. Time Changes (03:22)
02. Got Yourself To Blame (04:37)
03. Stones And Colours (04:15)
04. Roosevelt And Ira Lee (04:56)
05. Wanna Be With You (03:22)
06. Ain't That Enough (02:50)
07. Take Me Away (04:02)
08. Dark Angel (03:24)
09. Everlasting Lovin' Boy (03:38)
10. Jim Beam Blues (03:53)
11. The Riverside (03:17)
12. Keep Your Head Above Water (03:40)
13. Baby Please Don't Go (06:49)

1999 - Live At The Twilight /Time Blues/
01. Everlasting Lovin Boy (04:02)
02. Dark Angel (05:01)
03. Crossword Blues (06:13)
04. Jim Beam Blues (04:07)
05. Sunburn (04:01)
06. Keep Your Head Above Water (03:23)
07. Lil' Melody (03:49)
08. Peregian (01:52)
09. Roosevelt & Ira Lee (04:45)
10. I Like To Dress Like Batman (04:46)
11. Don't Be Too Hard On Me (04:28)
12. The Sinner (04:01)
13. Itty Bitty Mama (05:12)
14. Bad Girl (03:06)
15. Black Is White (03:26)
16. My Acid Is Kickin In (04:54)

2001 - Monkeygrinder /Provogue PRD 71130 2/
01. Revenge Of The Monkeygrinder (03:44)
02. Drink Jack Boogie (03:33)
03. Product Of A Southern Land (04:54)
04. Weapon Called Love (03:19)
05. ElmerF's Lil' Blues (05:44)
06. The Harder I Will Fall (03:59)
07. Diamonds In The Air (04:13)
08. Not My Guitar (05:34)
09. Sugar Coat (04:35)
10. What Do Yuo Believe (03:08)
11. My Acid Is Kickin' In (04:07)
12. In The Scheme Of Things (04:49)

2005 - Shakin' The Devil's Hand (Live In Europe) /Dixiefrog Records DFGCD 8588/
01. Baby Please Don't Go (3:43)
02. Crossword Blues (6:10)
03. The Sinner (3:59)
04. Roosevelt & Ira Lee (5:57)
05. Product Of A Southern Land (6:24)
06. Guitar Boogie ReFried (2:43)
07. Dirty Occupation (4:08)
08. Mr. John Lee (4:06)
09. Shakin' The Devil's Hand (4:34)
10. Jim Beam Blues (3:52)
11. Lil' Melody (3:54)
12. Bad Girl (3:01)
13. Black Chair (2:51)
14. Comin' Home Tonight (5:04)
15. Drink Jack Boogie (3:43)
16. Keep Your Hands To Yourself (3:13)
17. Pourin' Down Me (3:50)

2005 - The Ironyard /Electric-Renegade/
01. Words Of A Desperate Man (05:54)
02. No Guarantee (04:15)
03. See Me In The Evening (04:31)
04. All Mine (03:50)
05. Hoot, Shoot, Electrocute (03:27)
06. Can't Take Lovin' (04:30)
07. The Ironyard (04:09)
08. Devil Outta Me (03:41)
09. Lands Of Cirrus (02:53)
10. The Real Thing (04:34)
11. Silver Machine (04:43)
12. Hey Joe (Live) (05:24)
13. Rock'n'Roll Business Man (03:12)
14. I'm Gonna Blow Your Nuts Of With A Gun (02:39)
15. Mountain Man (04:33)
16. Guitar Boogie Refried (Live - GTFM) (02:46)
17. Crossword Blues (Live - GTFM) (06:00)
18. The Good Die Young Instrumental (04:33)

2008 - Capital Wah /Electric-Renegade/
01. The Rain (4:11)
02. Isolate (4:04)
03. Like A Rolling Stone (5:45)
04. Dogs With Fleas (4:15)
05. Let Your Love Fly (5:08)
06. My Detonation (3:01)
07. Redhouse (Live) (8:10)
08. Shoot To Kill (4:44)
09. Reboot (2:19)
10. I Got You - You Got Me (3:14)
11. The Good Die Young (Original) (3:48)
12. Product Of A Southern Land (Live) (7:19)
13. God Bless America (3:05)
14. Ballad Of Julie-Ann (3:57)
15. Stupify Me (4:10)

2009 - 2010db /Music Avenue 250237/
01. This is Rock 'N' Roll (3:32)
02. Boogie Like You Never Did (3:11)
03. Can't See The Smoke (4:32)
04. Another Tequila (5:16)
05. Pourin' Down On Me (5:32)
06. TV Preacher (4:36)
07. Spaceman (5:46)
08. 2010db (3:49)
09. The Broken String (3:23)
10. Light Of Day (3:33)
11. Stupid Mistake (3:15)
12. San Francisco (4:12)
13. Honeymoon Is Over /Live Bonus Track/ (2:57)

2010 - Rock And Roll Live (2CD) /Music Avenue 250279/
CD1:
01. Rock & Roll Business Man (03:36)
02. Black Chair (03:20)
03. Dirty Occupation (04:41)
04. Dark Angel (09:37)
05. Drink Jack Boogie (04:23)
06. Bad Girl (04:29)
07. Roosevelt & Ira Lee (04:52)
08. Guitar Boogie Refried (02:54)
09. My Detonation (02:58)
10. Product Of A Southern Land (08:04)
11. Itty Bitty Mama (09:12)
12. Lands Of Cirrus (03:10)
13. My Acid Is Kickin' In (05:07)

CD2:
01. Hey Joe (06:19)
02. Keep Your Head Above Water (03:38)
03. The Real Thing (04:37)
04. Mr. John Lee (04:02)
05. God Bless America (03:31)
06. Jim Beam Blues (05:44)
07. This Is Rock And Roll (03:31)
08. 2010dB (03:48)
09. Words Of A Desperate Man (04:29)
10. Shoot to Kill (04:57)
11. Redhouse (07:29)
12. Baby Please Don't Go (13:14)
13. Shoot, Hoot, Electrocute (05:14)

2012 - Art /Music Avenue 250325/
01. Shot The Dove (5:37)
02. Heaven Or Hell (3:35)
03. Play Your Blues (3:34)
04. Cafe Deluxe (3:30)
05. Sling Blade Made (5:00)
06. Set You Free (3:23)
07. Angel (4:39)
08. Roadrunner (5:12)
09. Reasons Why (3:30)
10. F#?*! It (4:37)
11. Hey Hey, My My (Into The Black) (4:58)
12. Turn Up Your Radio (2:59)

2012 - Boogie Like You Never Did /Music Avenue 250301/
01. Reboot (2:19)
02. Spaceman (5:44)
03. The Broken String (3:24)
04. Boogie Like You Never Did (3:12)
05. Can't See the Smoke (4:33)
06. Light of Day (3:34)
07. The Rain (4:12)
08. Isolate (4:05)
09. Shoot To Kill (4:45)
10. God Bless America (3:05)
11. Words of a Desperate Man (5:55)
12. No Guarantee (4:16)
13. Hoot, Sooot, Electrocute (4:32)
14. The Real Thing (4:35)
15. Devil Outta Me (3:41)

2012 - Energy Red /Dixiefrog Records DFGCD 8123/
01. Take You Home Now (5:41)
02. Boogie Don't Need No Rest (4:05)
03. Fire From Hell (3:32)
04. Someone To Love Me (5:24)
05. Don't Love (5:03)
06. Queensland Heat (4:04)
07. Blue Butterfly (Seven Season) (4:51)
08. Can't You See (6:03)
09. I Remember When I Was Young (4:47)
10. As Tears Go By (2:36)
11. Better Be Home Soon (2:41)
12. So Fuckin' Bored (2:59)
13. I Wanna Play An Iggy Pop Record Today (2:31)

2013 - Casino Placebo /Music Avenue 250355/
01. Don't Need Lovin Tonight (3:45)
02. Catcher In The Rye (5:24)
03. Casino Placebo (4:12)
04. Something (3:48)
05. If The Weather Get's Ruff (3:51)
06. Tsunami (3:24)
07. Stolen Heart (3:50)
08. The Last Kiss (3:52)
09. Casino Placebo 2 (3:05)
10. Hard Love (4:37)
11. Relax (3:51)
12. Vegemite (3:11)

2014 - The Lost Album /Music Avenue 250367/
01. Comin' Home Tonight (5:20)
02. Shakin' The Devil'S Hand (4:44)
03. Mr. John Lee (The Boogie Man) (4:13)
04. Pool Shark (2:40)
05. For All Time (3:57)
06. Four Seasons (3:25)
07. Take A Bone From A Dawg (3:45)
08. Need A Break (3:40)
09. Retro Shakin' (3:09)
10. Vietnam Soldier (3:52)
11. 24-Hour Blues (3:58)
12. Guitar Boogie Refried (2:38)
13. Black Chair (3:01)

Нажмите чтобы закрыть спойлер: Список песен

Оповестить о раздаче

Rob tognoni дискография скачать торрент:

  • скачать
  • скачать
  • Другие статьи

    Музыкальный Альбом Rob Tognoni - Brave FLAC 2016 года скачать торрент

    Категория материала: Rock & Metal / Зарубежные альбомы
    Год релиза: 2016
    Формат | Качество: FLAC | lossless Kbps
    Количество треков: 12
    Время звучания: 00:49:10
    Теги (жанр, год выпуска): Blues Rock 2016 FLAC Rock
    Размер архива: 390 Mb (cкачиваний: 355)

    Для ознакомления

    01. Brave (4:46)
    02. Voodoo Girl (4:07)
    03. Burnin' Alive (3:39)
    04. Dammed If I Do (3:54)
    05. You (4:34)
    06. 1974 (3:03)
    07. Maid Marion, Robin Hood (6:17)
    08. Fly Like An Eagle (4:20)
    09. Happy Birthday (3:25)
    10. Power (3:19)
    11. Latino Lounge (3:21)
    12. Don't Be Too Hard On Me (4:25)


    Уважемый меломан! Если у Вас возникли вопросы, трудности, Вы впервые используете торрент и не знаете, как скачать Альбом Rob Tognoni - Brave . то рекомендуем Вам ознакомиться с простой и наглядной инструкцией о том - как скачивать через торрент на Андроид .
    Если торрент-файл недоступен, или уже "устарел" (нет раздающих), или у Вас есть вопросы/предложения по содержанию и оформлению представленного на этой странице материала, то просто заполните эту форму

    Мы также предлагаем Вам посетить наиболее популярные разделы нашего музыкального сайта, где есть сборники и альбомы, которые могут Вас заинтересовать:
    сборники музыки 2016
    сборники музыки 2017 (раздел еще не актуален)
    сборники mp3 музыки
    сборники FLAC музыки

    Похожая музыка Комментарии (0)

    Rob Tognoni (2012) FLAC 2 альбома - Торрент

    Исполнитель. Rob Tognoni
    Жанр. Heavy Blues Rock
    Страна-производитель диска. France, Holland
    Год издания. 2012
    Аудиокодек. FLAC (*.flac)
    Тип рипа. image+.cue
    Битрейт аудио. lossless
    Наличие сканов в содержимом раздачи. да

    2012 - Boogie Like You Never Did - 61:59

    01. Reboot (2:19)
    02. Spaceman (5:44)
    03. The Broken String (3:24)
    04. Boogie Like You Never Did (3:12)
    05. Can't See the Smoke (4:33)
    06. Light of Day (3:34)
    07. The Rain (4:12)
    08. Isolate (4:05)
    09. Shoot To Kill (4:45)
    10. God Bless America (3:05)
    11. Words of a Desperate Man (5:55)
    12. No Guarantee (4:16)
    13. Hoot, Sooot, Electrocute (4:32)
    14. The Real Thing (4:35)
    15. Devil Outta Me (3:41)

    2012 - Energy Red - 54:16

    01. Take You Home Now (5:41)
    02. Boogie Don't Need No Rest (4:05)
    03. Fire From Hell (3:32)
    04. Someone To Love Me (5:24)
    05. Don't Love (5:03)
    06. Queensland Heat (4:04)
    07. Blue Butterfly (Seven Season) (4:51)
    08. Can't You See (6:03)
    09. I Remember When I Was Young (4:47)
    10. As Tears Go By (2:36)
    11. Better Be Home Soon (2:41)
    12. So Fuckin' Bored (2:59)
    13. I Wanna Play An Iggy Pop Record Today (2:31)

    • Размер: 880.3 Mb
    • Файлов: 16
    • Сидеры были: 26.02.2017 19:48

    Детальная статистика по трекерам (4)

    Добавление комментария:

    Скачать музыку Rob Tognoni - Collection (1995) через торрент

    Скачать музыку Rob Tognoni - Collection / [1995-2012, Heavy Blues Rock, FLAC] - торрент

    Rob Tognoni - Collection

    Формат: FLAC, (image + .cue), lossless
    Год выпуска: 1995-2012
    Страна: Australia
    Жанр: Heavy Blues Rock
    Продолжительность: 10:03:40

    1995 - Stones And Colours (00

    01. Dirty Occupation 04:20
    02. The Good Die Young 03:57
    03. This Is Love 03:41
    04. When I'm Alone 03:50
    05. Itty Bitty Mama 04:27
    06. Black Chair 02:39
    07. Inside Your Window 04:11
    08. Crossword Blues 05:18
    09. Lil' Melody 03:01
    10. The Sinner 03:59
    11. Bad Girl 03:07
    12. Don't Take Me 06:49

    Exact Audio Copy V0.99 prebeta 4 from 23. January 2008

    Отчёт EAC об извлечении, выполненном 9. апреля 2008, 23:22

    Rob Tognoni Band / Stones And Colours

    Дисковод: PIONEER DVD-RW DVR-112D Adapter: 0 ID: 0

    Режим чтения. Достоверность
    Использование точного потока. Да
    Отключение кэша аудио. Да
    Использование указателей C2. Нет

    Коррекция смещения при чтении. 48
    Способность читать области Lead-in и Lead-out. Нет
    Заполнение пропущенных сэмплов тишиной. Да
    Удаление блоков с тишиной в начале и конце. Нет
    При вычислениях CRC использовались нулевые сэмплы. Нет
    Интерфейс. Установленный внешний ASPI-интерфейс

    Выходной формат. Пользовательский кодировщик
    Выбранный битрейт. 768 kBit/s
    Качество. Высокий
    Добавление ID3-тэга. Нет
    Утилита сжатия. D:\Program Files\Exact Audio Copy\FLAC\FLAC.EXE
    Дополнительные параметры. -6 -V -T "ARTIST=%a" -T "TITLE=%t" -T "ALBUM=%g" -T "DATE=%y" -T "TRACKNUMBER=%n" -T "GENRE=%m" -T "COMMENT=%e" %s -o %d

    TOC извлечённого CD

    Трек | Старт | Длительность | Начальный сектор | Конечный сектор
    ---------------------------------------------------------------------
    1 | 0:00.33 | 4:23.00 | 33 | 19757
    2 | 4:23.33 | 4:00.00 | 19758 | 37757
    3 | 8:23.33 | 3:45.00 | 37758 | 54632
    4 | 12:08.33 | 3:51.37 | 54633 | 71994
    5 | 15:59.70 | 4:30.58 | 71995 | 92302
    6 | 20:30.53 | 2:42.40 | 92303 | 104492
    7 | 23:13.18 | 4:14.27 | 104493 | 123569
    8 | 27:27.45 | 5:20.00 | 123570 | 147569
    9 | 32:47.45 | 3:03.00 | 147570 | 161294
    10 | 35:50.45 | 4:03.00 | 161295 | 179519
    11 | 39:53.45 | 3:10.28 | 179520 | 193797
    12 | 43:03.73 | 6:51.02 | 193798 | 224624

    Характеристики диапазона извлечения и сообщения об ошибках

    Имя файла D:\Upload\tognoni\Rob Tognoni Band - Stones And Colours.wav

    Пиковый уровень 99.1 %
    Качество диапазона 100.0 %
    CRC копии 1862EDA6
    Копирование. OK

    Ошибок не произошло

    Трек 1 точность не определена (достоверность 1) [66EB4D64], AccurateRip вернул [BCD8B7D5]
    Трек 2 точность не определена (достоверность 1) [E8F5C98C], AccurateRip вернул [E303592B]
    Трек 3 точность не определена (достоверность 1) [0F19304C], AccurateRip вернул [23B7FE98]
    Трек 4 точность не определена (достоверность 1) [E575E486], AccurateRip вернул [61529FE3]
    Трек 5 точность не определена (достоверность 1) [605FE65C], AccurateRip вернул [48DF8A8D]
    Трек 6 точность не определена (достоверность 1) [4655A3BD], AccurateRip вернул [62D49FB4]
    Трек 7 нет в базе данных
    Трек 8 нет в базе данных
    Трек 9 точность не определена (достоверность 1) [097DA39A], AccurateRip вернул [AF292687]
    Трек 10 точность не определена (достоверность 1) [D2F776DD], AccurateRip вернул [0C9B3237]
    Трек 11 точность не определена (достоверность 1) [CEF98F7B], AccurateRip вернул [55A67F40]
    Трек 12 точность не определена (достоверность 1) [DFD87BF3], AccurateRip вернул [79EE8CDC]

    0 трек(и) не удалось проверить на точность
    2 трек(и) не содержатся в базе AccurateRip

    Ни один трек не прошёл проверки на точность
    В вашей базе может быть иной вариант штамповки диска

    1997 - Headstrong (00

    01. Time Changes 03:22
    02. Got Yourself To Blame 04:37
    03. Stones And Colours 04:15
    04. Roosevelt And Ira Lee 04:56
    05. Wanna Be With You 03:22
    06. Ain't That Enough 02:50
    07. Take Me Away 04:02
    08. Dark Angel 03:24
    09. Everlasting Lovin' Boy 03:38
    10. Jim Beam Blues 03:53
    11. The Riverside 03:17
    12. Keep Your Head Above Water 03:40
    13. Baby Please Don't Go 06:49

    Отчёт EAC об извлечении, выполненном 13. марта 2009, 16:58 для диска:
    Неизвестный исполнитель / Неизвестное название

    Дисковод: Optiarc DVD RW AD-7200A Adapter: 1 ID: 0
    Режим чтения: Точный (C2: нет, Точный поток: да, Отключение кэша: да)
    Коррекция смещения при чтении: 48
    Экстрачтение областей Lead-in и Lead-out. Нет

    Выходной формат: Внутренние WAV-операции
    44.100 Гц; 16 бит; стерео

    Другие параметры:
    Заполнение пропущенных сэмплов тишиной. Да
    Удаление блоков с тишиной в начале и конце. Нет
    'Родной' Win32-интерфейс для Win NT/2000

    Статус диапазона и ошибки
    Выбранный диапазон
    Имя файла G:\Upload\Tognoni97\Tognoni97.wav

    Пиковый уровень 100.0 %
    Качество диапазона 100.0 %
    CRC 242EA7EA
    Копирование. OK

    Ошибок не произошло

    2001 - Monkeygrinderr (00

    01. Revenge Of The Monkeygrinder 03:44
    02. Drink Jack Boogie 03:33
    03. Product Of A Southern Land 04:54
    04. Weapon Called Love 03:19
    05. ElmerF's Lil' Blues 05:44
    06. The Harder I Will Fall 03:59
    07. Diamonds In The Air 04:13
    08. Not My Guitar 05:34
    09. Sugar Coat 04:35
    10. What Do Yuo Believe 03:08
    11. My Acid Is Kickin' In 04:07
    12. In The Scheme Of Things 04:49

    Отчёт EAC об извлечении, выполненном 19. августа 2008, 8:25 для диска:
    Rob Tognoni / Monkeygrinder

    Дисковод: Optiarc DVD RW AD-7190A Adapter: 3 ID: 1
    Режим чтения: Достоверный (C2: нет, Точный поток: да, Отключение кэша: да)
    Комбинированное смещение чтения/записи: 6
    Способность читать области Lead-in и Lead-out. Нет

    Выходной формат: Внутренние WAV-операции
    44.100 Гц; 16 бит; стерео

    Другие параметры:
    Заполнение пропущенных сэмплов тишиной. Да
    Удаление блоков с тишиной в начале и конце. Нет
    Встроенный Win32-интерфейс для Win NT/2000

    Характеристики диапазона извлечения и сообщения об ошибках
    Выбранный диапазон
    Имя файла D:\МУЗ РАЗДАЧА\V.B.B Gipsy Boogie\Rob Tognoni - Monkeygrinder.wav

    Пиковый уровень 97.7 %
    Качество диапазона 100.0 %
    CRC DD308513
    Копирование. OK

    Ошибок не произошло

    2008 - Capital Wah (01

    01. The Rain 04:11
    02. Isolate 04:04
    03. Like A Rolling Stone 05:45
    04. Dogs With Fleas 04:15
    05. Let Your Love Fly 05:08
    06. My Detonation 03:01
    07. Redhouse (Live) 08:10
    08. Shoot To Kill 04:44
    09. Reboot 02:19
    10. I Got You - You Got Me 03:14
    11. The Good Die Young (Original) 03:48
    12. Product Of A Southern Land (Live) 07:19
    13. God Bless America 03:05
    14. Ballad Of Julie-Ann 03:57
    15. Stupify Me 04:10

    Отчёт EAC об извлечении, выполненном 18. апреля 2008, 19:01 для диска:
    Rob Tognoni / Capital Wah

    Дисковод: _NEC DVD_RW ND-3520A Adapter: 1 ID: 0
    Режим чтения: Достоверный (C2: нет, Точный поток: да, Отключение кэша: да)
    Коррекция смещения при чтении: 48
    Способность читать области Lead-in и Lead-out. Нет

    Выходной формат: Внутренние WAV-операции
    44.100 Гц; 16 бит; стерео

    Другие параметры:
    Заполнение пропущенных сэмплов тишиной. Да
    Удаление блоков с тишиной в начале и конце. Нет
    Установленный внешний ASPI-интерфейс

    Характеристики диапазона извлечения и сообщения об ошибках
    Выбранный диапазон
    Имя файла D:\EAC\ZAKAZ\Rob Tognoni - Capital Wah.wav

    Пиковый уровень 100.0 %
    Качество диапазона 100.0 %
    CRC BF04B752
    Копирование. OK

    Ошибок не произошло

    2008 - Ironyard Revisited (01

    01. Words Of A Desperate Man 05:54
    02. No Guarantee 04:15
    03. See Me In The Evening 04:31
    04. Shoot Hoot Electrocute 03:27
    05. The Ironyard 04:09
    06. Real Thing 04:34
    07. Devil Outta Me 03:41
    08. Rock 'n Roll Business Man 03:12
    09. Blow Your Nuts Off With A Gun 02:39
    10. Mountain Man 04:33
    11. All Mine 03:50
    12. Can't Take Lovin' 04:30
    13. Lands Of Cirrus 02:53
    14. Silver Machine 04:43
    15. Hey Joe 05:24
    16. Guitar Boogie ReFried 02:46
    17. Crossword Blues 06:00
    18. The Good Die Young Instrumental 04:33

    Отчёт EAC об извлечении, выполненном 17. марта 2009, 15:04 для диска:
    Неизвестный исполнитель / Неизвестное название

    Дисковод: Optiarc DVD RW AD-7200A Adapter: 1 ID: 0
    Режим чтения: Точный (C2: нет, Точный поток: да, Отключение кэша: да)
    Коррекция смещения при чтении: 48
    Экстрачтение областей Lead-in и Lead-out. Нет

    Выходной формат: Внутренние WAV-операции
    44.100 Гц; 16 бит; стерео

    Другие параметры:
    Заполнение пропущенных сэмплов тишиной. Да
    Удаление блоков с тишиной в начале и конце. Нет
    'Родной' Win32-интерфейс для Win NT/2000

    Статус диапазона и ошибки
    Выбранный диапазон
    Имя файла C:\UPload\Tognoni2008\Tognoni08.wav

    Пиковый уровень 100.0 %
    Качество диапазона 100.0 %
    CRC E8186581
    Копирование. OK

    Ошибок не произошло

    01. This is Rock 'N' Roll 03:32
    02. Boogie Like You Never Did 03:11
    03. Can't See The Smoke 04:32
    04. Another Tequila 05:16
    05. Pourin' Down On Me 05:32
    06. TV Preacher 04:36
    07. Spaceman 05:43
    08. 2010db 03:49
    09. The Broken String 03:23
    10. Light Of Day 03:33
    11. Stupid Misatke 03:15
    12. San Francisco 04:12
    13. Honeymoon Is Over 02:57

    Exact Audio Copy V0.99 prebeta 4 from 23. January 2008

    Отчёт EAC об извлечении, выполненном 17. августа 2009, 18:04

    Rob Tognoni / 2010 db

    Дисковод: TSSTcorpCD/DVDW SN-W082B Adapter: 5 ID: 0

    Режим чтения. Достоверность
    Использование точного потока. Да
    Отключение кэша аудио. Да
    Использование указателей C2. Нет

    Коррекция смещения при чтении. 704
    Способность читать области Lead-in и Lead-out. Нет
    Заполнение пропущенных сэмплов тишиной. Да
    Удаление блоков с тишиной в начале и конце. Нет
    При вычислениях CRC использовались нулевые сэмплы. Нет
    Интерфейс. Встроенный Win32-интерфейс для Win NT/2000

    Выходной формат. Пользовательский кодировщик
    Выбранный битрейт. 768 kBit/s
    Качество. Высокий
    Добавление ID3-тэга. Нет
    Утилита сжатия. C:\Program Files\Exact Audio Copy\FLAC\FLAC.EXE
    Дополнительные параметры. -6 -V -T "ARTIST=%a" -T "TITLE=%t" -T "ALBUM=%g" -T "DATE=%y" -T "TRACKNUMBER=%n" -T "GENRE=%m" -T "COMMENT=%e" %s -o %d

    TOC извлечённого CD

    Трек | Старт | Длительность | Начальный сектор | Конечный сектор
    ---------------------------------------------------------------------
    1 | 0:00.00 | 3:32.02 | 0 | 15901
    2 | 3:32.02 | 3:11.73 | 15902 | 30299
    3 | 6:44.00 | 4:32.37 | 30300 | 50736
    4 | 11:16.37 | 5:16.03 | 50737 | 74439
    5 | 16:32.40 | 5:32.31 | 74440 | 99370
    6 | 22:04.71 | 4:36.02 | 99371 | 120072
    7 | 26:40.73 | 5:43.72 | 120073 | 145869
    8 | 32:24.70 | 3:49.37 | 145870 | 163081
    9 | 36:14.32 | 3:23.00 | 163082 | 178306
    10 | 39:37.32 | 3:33.40 | 178307 | 194321
    11 | 43:10.72 | 3:15.39 | 194322 | 208985
    12 | 46:26.36 | 4:12.02 | 208986 | 227887
    13 | 50:38.38 | 2:57.01 | 227888 | 241163

    Характеристики диапазона извлечения и сообщения об ошибках

    Имя файла F:\Лосслесс\Rob Tognoni - 2010 db.wav

    Пиковый уровень 100.0 %
    Качество диапазона 100.0 %
    CRC копии DF74EB94
    Копирование. OK

    Ошибок не произошло

    Трек 1 точность не определена (достоверность 4) [EB197A5E], AccurateRip вернул [0E56ABBA]
    Трек 2 точность не определена (достоверность 4) [2AB4B911], AccurateRip вернул [DF19EAF1]
    Трек 3 точность не определена (достоверность 4) [AF3CADBD], AccurateRip вернул [ACDEEF15]
    Трек 4 точность не определена (достоверность 4) [47681D05], AccurateRip вернул [8594FE79]
    Трек 5 точность не определена (достоверность 4). AccurateRip вернул [EC9B6D98]
    Трек 6 точность не определена (достоверность 4). AccurateRip вернул [4181F3F9]
    Трек 7 точность не определена (достоверность 4) [BF2A9D2A], AccurateRip вернул [01DF4EA6]
    Трек 8 точность не определена (достоверность 4) [8D7EC9C1], AccurateRip вернул [E4B57169]
    Трек 9 точность не определена (достоверность 4) [C0DC8562], AccurateRip вернул [05D785E6]
    Трек 10 точность не определена (достоверность 4) [C2D8CA37], AccurateRip вернул [6E30FF4F]
    Трек 11 точность не определена (достоверность 4) [14068383], AccurateRip вернул [244BBCCF]
    Трек 12 точность не определена (достоверность 4) [19F08EB9], AccurateRip вернул [ABD0E961]
    Трек 13 точность не определена (достоверность 4) [32A73C06], AccurateRip вернул [81A224EE]

    Ни один трек не прошёл проверки на точность
    В вашей базе может быть иной вариант штамповки диска

    2010 - Rock and Ro. Live 2CD Set (02

    01. Rock & Roll Business Man 03:36
    02. Black Chair 03:20
    03. Dirty Occupation 04:41
    04. Dark Angel 09:37
    05. Drink Jack Boogie 04:23
    06. Bad Girl 04:29
    07. Roosevelt & Ira Lee 04:52
    08. Guitar Boogie Refried 02:54
    09. My Detonation 02:58
    10. Product Of A Southern Land 08:04
    11. Itty Bitty Mama 09:12
    12. Lands Of Cirrus 03:10
    13. My Acid Is Kickin' In 05:07

    Exact Audio Copy V0.99 prebeta 4 from 23. January 2008

    Отчёт EAC об извлечении, выполненном 20. апреля 2011, 11:33

    Rob Tognoni / Rock and Roll Live CD 1

    Дисковод: PIONEER DVD-RW DVR-118L Adapter: 0 ID: 0

    Режим чтения. Достоверность
    Использование точного потока. Да
    Отключение кэша аудио. Да
    Использование указателей C2. Нет

    Коррекция смещения при чтении. 6
    Способность читать области Lead-in и Lead-out. Нет
    Заполнение пропущенных сэмплов тишиной. Да
    Удаление блоков с тишиной в начале и конце. Нет
    При вычислениях CRC использовались нулевые сэмплы. Да
    Интерфейс. Встроенный Win32-интерфейс для Win NT/2000

    Выходной формат. Внутренние WAV-операции
    Формат сэмплов. 44.100 Гц; 16 бит; стерео

    TOC извлечённого CD

    Трек | Старт | Длительность | Начальный сектор | Конечный сектор
    ---------------------------------------------------------------------
    1 | 0:00.00 | 3:36.39 | 0 | 16238
    2 | 3:36.39 | 3:20.57 | 16239 | 31295
    3 | 6:57.21 | 4:41.15 | 31296 | 52385
    4 | 11:38.36 | 9:37.50 | 52386 | 95710
    5 | 21:16.11 | 4:23.31 | 95711 | 115466
    6 | 25:39.42 | 4:29.37 | 115467 | 135678
    7 | 30:09.04 | 4:52.54 | 135679 | 157632
    8 | 35:01.58 | 2:54.05 | 157633 | 170687
    9 | 37:55.63 | 2:58.53 | 170688 | 184090
    10 | 40:54.41 | 8:04.56 | 184091 | 220446
    11 | 48:59.22 | 9:12.64 | 220447 | 261910
    12 | 58:12.11 | 3:10.57 | 261911 | 276217
    13 | 61:22.68 | 5:07.11 | 276218 | 299253

    Характеристики диапазона извлечения и сообщения об ошибках

    Имя файла D:\КОЛЛЕКЦИЯ 11\Новая папка (3)\CD 1\Rob Tognoni - Rock and Roll Live CD 1.wav

    Пиковый уровень 100.0 %
    Качество диапазона 99.9 %
    CRC теста 7FA2D15C
    CRC копии 7FA2D15C
    Копирование. OK

    Ошибок не произошло

    Трек 1 точное извлечение (доверие 1) [2F75F835]
    Трек 2 точное извлечение (доверие 1) [4E08C160]
    Трек 3 точное извлечение (доверие 1) [95FAFED9]
    Трек 4 точное извлечение (доверие 1) [C08EB0B3]
    Трек 5 точное извлечение (доверие 1) [7DA66445]
    Трек 6 точное извлечение (доверие 1) [2BB02D9B]
    Трек 7 точное извлечение (доверие 1) [C5E2240E]
    Трек 8 точное извлечение (доверие 1) [58664C69]
    Трек 9 точное извлечение (доверие 1) [3D82A041]
    Трек 10 точное извлечение (доверие 1) [F5595E60]
    Трек 11 точное извлечение (доверие 1) [8310A636]
    Трек 12 точное извлечение (доверие 1) [2EB88E46]
    Трек 13 точное извлечение (доверие 1) [5A7140B0]

    Все треки извлечены точно

    Disc Two - Bonus Disc (01

    01. Hey Joe 06:19
    02. Keep Your Head Above Water 03:38
    03. The Real Thing 04:37
    04. Mr. John Lee 04:02
    05. God Bless America 03:31
    06. Jim Beam Blues 05:44
    07. This Is Rock And Roll 03:31
    08. 2010dB 03:48
    09. Words Of A Desperate Man 04:29
    10. Shoot to Kill 04:57
    11. Redhouse 07:29
    12. Baby Please Don't Go 13:14
    13. Shoot, Hoot, Electrocute 05:14

    Exact Audio Copy V0.99 prebeta 4 from 23. January 2008

    Отчёт EAC об извлечении, выполненном 20. апреля 2011, 3:19

    Rob Tognoni / Rock and Roll Live CD 2

    Дисковод: Optiarc DVD RW AD-7173A Adapter: 0 ID: 1

    Режим чтения. Достоверность
    Использование точного потока. Да
    Отключение кэша аудио. Да
    Использование указателей C2. Нет

    Коррекция смещения при чтении. 48
    Способность читать области Lead-in и Lead-out. Нет
    Заполнение пропущенных сэмплов тишиной. Да
    Удаление блоков с тишиной в начале и конце. Нет
    При вычислениях CRC использовались нулевые сэмплы. Да
    Интерфейс. Встроенный Win32-интерфейс для Win NT/2000

    Выходной формат. Внутренние WAV-операции
    Формат сэмплов. 44.100 Гц; 16 бит; стерео

    TOC извлечённого CD

    Трек | Старт | Длительность | Начальный сектор | Конечный сектор
    ---------------------------------------------------------------------
    1 | 0:00.00 | 6:19.66 | 0 | 28490
    2 | 6:19.66 | 3:38.73 | 28491 | 44913
    3 | 9:58.64 | 4:37.29 | 44914 | 65717
    4 | 14:36.18 | 4:02.67 | 65718 | 83934
    5 | 18:39.10 | 3:31.37 | 83935 | 99796
    6 | 22:10.47 | 5:44.48 | 99797 | 125644
    7 | 27:55.20 | 3:31.44 | 125645 | 141513
    8 | 31:26.64 | 3:48.07 | 141514 | 158620
    9 | 35:14.71 | 4:29.22 | 158621 | 178817
    10 | 39:44.18 | 4:57.36 | 178818 | 201128
    11 | 44:41.54 | 7:29.06 | 201129 | 234809
    12 | 52:10.60 | 13:14.31 | 234810 | 294390
    13 | 65:25.16 | 5:14.66 | 294391 | 318006

    Характеристики диапазона извлечения и сообщения об ошибках

    Имя файла D:\КОЛЛЕКЦИЯ 11\Новая папка (3)\CD 2\Rob Tognoni - Rock and Roll Live CD 2.wav

    Пиковый уровень 100.0 %
    Качество диапазона 99.9 %
    CRC теста 64CE9B61
    CRC копии 64CE9B61
    Копирование. OK

    Ошибок не произошло

    Трек 1 точное извлечение (доверие 1) [C79B3B96]
    Трек 2 точное извлечение (доверие 1)
    Трек 3 точное извлечение (доверие 1) [4F7B8D07]
    Трек 4 точное извлечение (доверие 1) [CDCE1F43]
    Трек 5 точное извлечение (доверие 1)
    Трек 6 точное извлечение (доверие 1) [582C42A9]
    Трек 7 точное извлечение (доверие 1) [3A347C89]
    Трек 8 точное извлечение (доверие 1) [9CCE4234]
    Трек 9 точное извлечение (доверие 1) [C39C0D3A]
    Трек 10 точное извлечение (доверие 1) [84462189]
    Трек 11 точное извлечение (доверие 1) [E76409C5]
    Трек 12 точное извлечение (доверие 1) [F80D4907]
    Трек 13 точное извлечение (доверие 1) [3C232FD0]

    Все треки извлечены точно

    2012 - Boogie Like You Never Did (01

    01. Reboot 02:19
    02. Spaceman 05:44
    03. The Broken String 03:24
    04. Boogie Like You Never Did 03:12
    05. Can't See the Smoke 04:33
    06. Light of Day 03:34
    07. The Rain 04:12
    08. Isolate 04:05
    09. Shoot To Kill 04:45
    10. God Bless America 03:05
    11. Words of a Desperate Man 05:55
    12. No Guarantee 04:16
    13. Hoot, Sooot, Electrocute 04:32
    14. The Real Thing 04:35
    15. Devil Outta Me 03:41

    Exact Audio Copy V0.99 prebeta 4 from 23. January 2008

    Отчёт EAC об извлечении, выполненном 10. апреля 2012, 19:44

    Rob Tognoni / Boogie Like You Never Did

    Дисковод: PLEXTOR DVDR PX-880SA Adapter: 1 ID: 1

    Режим чтения. Достоверность
    Использование точного потока. Да
    Отключение кэша аудио. Да
    Использование указателей C2. Нет

    Коррекция смещения при чтении. 6
    Способность читать области Lead-in и Lead-out. Нет
    Заполнение пропущенных сэмплов тишиной. Да
    Удаление блоков с тишиной в начале и конце. Нет
    При вычислениях CRC использовались нулевые сэмплы. Да
    Интерфейс. Встроенный Win32-интерфейс для Win NT/2000

    Выходной формат. Пользовательский кодировщик
    Выбранный битрейт. 1024 kBit/s
    Качество. Высокий
    Добавление ID3-тэга. Нет
    Утилита сжатия. C:\Program Files\Exact Audio Copy\FLAC\FLAC.EXE
    Дополнительные параметры. -6 -V -T "ARTIST=%a" -T "TITLE=%t" -T "ALBUM=%g" -T "DATE=%y" -T "TRACKNUMBER=%n" -T "GENRE=%m" -T "COMMENT=%e" %s -o %d

    TOC извлечённого CD

    Трек | Старт | Длительность | Начальный сектор | Конечный сектор
    ---------------------------------------------------------------------
    1 | 0:00.00 | 2:19.62 | 0 | 10486
    2 | 2:19.62 | 5:44.72 | 10487 | 36358
    3 | 8:04.59 | 3:24.00 | 36359 | 51658
    4 | 11:28.59 | 3:12.73 | 51659 | 66131
    5 | 14:41.57 | 4:33.37 | 66132 | 86643
    6 | 19:15.19 | 3:34.40 | 86644 | 102733
    7 | 22:49.59 | 4:12.03 | 102734 | 121636
    8 | 27:01.62 | 4:05.02 | 121637 | 140013
    9 | 31:06.64 | 4:45.00 | 140014 | 161388
    10 | 35:51.64 | 3:05.64 | 161389 | 175327
    11 | 38:57.53 | 5:55.36 | 175328 | 201988
    12 | 44:53.14 | 4:16.00 | 201989 | 221188
    13 | 49:09.14 | 4:32.73 | 221189 | 241661
    14 | 53:42.12 | 4:35.73 | 241662 | 262359
    15 | 58:18.10 | 3:41.36 | 262360 | 278970

    Характеристики диапазона извлечения и сообщения об ошибках

    Имя файла J:\BitComet\Rob Tognoni(flac)\2012 - Boogie Like You Never Did\Rob Tognoni - Boogie Like You Never Did.wav

    Пиковый уровень 100.0 %
    Качество диапазона 100.0 %
    CRC теста 125928F9
    CRC копии 125928F9
    Копирование. OK

    Ошибок не произошло

    Трек 1 нет в базе данных
    Трек 2 нет в базе данных
    Трек 3 нет в базе данных
    Трек 4 нет в базе данных
    Трек 5 нет в базе данных
    Трек 6 нет в базе данных
    Трек 7 нет в базе данных
    Трек 8 нет в базе данных
    Трек 9 нет в базе данных
    Трек 10 нет в базе данных
    Трек 11 нет в базе данных
    Трек 12 нет в базе данных
    Трек 13 нет в базе данных
    Трек 14 нет в базе данных
    Трек 15 нет в базе данных

    Ни одного трека нет в базе AccurateRip

    2012 - Energy Red (00

    01. Take You Home Now 05:41
    02. Boogie Don't Need No Rest 04:05
    03. Fire From Hell 03:32
    04. Someone To Love Me 05:24
    05. Don't Love 05:03
    06. Queensland Heat 04:04
    07. Blue Butterfly (Seven Season) 04:51
    08. Can't You See 06:03
    09. I Remember When I Was Young 04:47
    10. As Tears Go By 02:36
    11. Better Be Home Soon 02:41
    12. So Fuckin' Bored 02:59
    13. I Wanna Play An Iggy Pop Record Today 02:31

    Exact Audio Copy V0.99 prebeta 4 from 23. January 2008

    Отчёт EAC об извлечении, выполненном 9. апреля 2012, 21:26

    Rob Tognoni / Energy Red

    Дисковод: PLEXTOR DVDR PX-880SA Adapter: 1 ID: 1

    Режим чтения. Достоверность
    Использование точного потока. Да
    Отключение кэша аудио. Да
    Использование указателей C2. Нет

    Коррекция смещения при чтении. 6
    Способность читать области Lead-in и Lead-out. Нет
    Заполнение пропущенных сэмплов тишиной. Да
    Удаление блоков с тишиной в начале и конце. Нет
    При вычислениях CRC использовались нулевые сэмплы. Да
    Интерфейс. Встроенный Win32-интерфейс для Win NT/2000

    Выходной формат. Пользовательский кодировщик
    Выбранный битрейт. 1024 kBit/s
    Качество. Высокий
    Добавление ID3-тэга. Нет
    Утилита сжатия. C:\Program Files\Exact Audio Copy\FLAC\FLAC.EXE
    Дополнительные параметры. -6 -V -T "ARTIST=%a" -T "TITLE=%t" -T "ALBUM=%g" -T "DATE=%y" -T "TRACKNUMBER=%n" -T "GENRE=%m" -T "COMMENT=%e" %s -o %d

    TOC извлечённого CD

    Трек | Старт | Длительность | Начальный сектор | Конечный сектор
    ---------------------------------------------------------------------
    1 | 0:00.00 | 5:41.00 | 0 | 25574
    2 | 5:41.00 | 4:04.73 | 25575 | 43947
    3 | 9:45.73 | 3:31.73 | 43948 | 59845
    4 | 13:17.71 | 5:24.01 | 59846 | 84146
    5 | 18:41.72 | 5:02.73 | 84147 | 106869
    6 | 23:44.70 | 4:04.00 | 106870 | 125169
    7 | 27:48.70 | 4:51.01 | 125170 | 146995
    8 | 32:39.71 | 6:03.01 | 146996 | 174221
    9 | 38:42.72 | 4:47.02 | 174222 | 195748
    10 | 43:29.74 | 2:35.73 | 195749 | 207446
    11 | 46:05.72 | 2:41.00 | 207447 | 219521
    12 | 48:46.72 | 2:59.01 | 219522 | 232947
    13 | 51:45.73 | 2:31.01 | 232948 | 244273

    Характеристики диапазона извлечения и сообщения об ошибках

    Имя файла J:\BitComet\Rob Tognoni(flac)\2012 - Energy Red\Rob Tognoni - Energy Red.wav

    Пиковый уровень 99.9 %
    Качество диапазона 100.0 %
    CRC теста CD35E516
    CRC копии CD35E516
    Копирование. OK

    Ошибок не произошло

    Трек 1 нет в базе данных
    Трек 2 нет в базе данных
    Трек 3 нет в базе данных
    Трек 4 нет в базе данных
    Трек 5 нет в базе данных
    Трек 6 нет в базе данных
    Трек 7 нет в базе данных
    Трек 8 нет в базе данных
    Трек 9 нет в базе данных
    Трек 10 нет в базе данных
    Трек 11 нет в базе данных
    Трек 12 нет в базе данных
    Трек 13 нет в базе данных

    Ни одного трека нет в базе AccurateRip

    Rob Tognoni известный австралийский гитарист. Яркий и талантливый пример блюзмена, в юности запавшего на ранний AC/DC.
    Robert John Tognoni родился в 1960-м в Улверстоне, Северо -западное побережье Тасмании, в семье итальянских эмигрантов. Тасмания в 60-е была изолирована от блюза. В стране до ранних 70-ых доминировала госпел музыка. В 1972-м Роб начал слушать записи старшей сестры и открыл для себя блюз БиБи Кинга, Джимми Хендрикса, Тони Джо Уайта. Тогнони не ограничил себя блюзом и увлекся роком Grand Funk Railroad, Slade, Элтона Джона, формируя свой будущий стиль. В 1974-м, находясь в депрессии, после смерти отца, погибшего в автокатастрофе, Роб берет в руки гитару.
    Побывав на концерте AC|DC, подросток решил посвятить себя музыке, cделав ставку на блюз - рок и начал играть в местной группе высшей школы. Геологическая работа "оператора бульдозера" не удовлетворяла Тогнони. В 1977-м он написал первую песню "Jim Beam Blues" и начал выступать с собственной группой Skidrow Boys в местных клубах Тасмании. В 1985-м музыкант с семьей переезжает в Мельбурн, сформировывая новую группу The Outlaws. Успех пришел через 4 месяца. Коллектив наминируется в 3-х категориях на 20-й ежегодной Queensland Rock Awards, получив Премии "лучший гитарист", "лучший барабанщик", "лучшая группа года". В 1989-м были записаны первые демо" I Got You - You Got Me" и молоформатный альбом " The Dogs Are Talking". Группа изменяет название на Baby Animals а позже на The Desert Cats, покоряя национальные чарты на 7-м месте.
    В начале 90-ых Тогнони гастролирует с признанными мастерами блюза. Лонни Маком, Джо Уолшем, Роем Бюкэнэном, готовя материал для дебюта. В 1994-м соотечественник Тогнони –Дэйв Хол, помог Робу выйти на европейский рынок заключением контракта на запись с Provogue/Mascot Records в Нидерландах. Он же и спродюсировал дебютный альбом " The Stones And Colours", ставший интернациональным. Первые европейские гастроли музыкант совершил в феврале 1996-го, а в июле был тепло принят слушателями и местной прессой на Midtfyns фестивале в Дании. Второй альбом "Headstrong"января 1997-го был еще успешнее, а гастроли проходили вместе со Стингом.
    В 1998 –м Роб Тогнони выступает на фестивалях в Германии и Австрии, а в Бельгии записывает и выпускает концертный альбом " Live At The Twilight", закрепив его европейскими ноябрьскими гастролями. Очередной"Monkeygrinder"выходит в апреле 2001-го. Группа гастролирует по Европе классическом power-trio и устанавливает рекорд - "27 концертов за 28 дней". Через год у Роба появляется собственный лейбл Electric-Renegade, на котором лимитированным тиражем музыкант выпускает очередной альбом "Retro Shakin". Успешные выступления на Kwadendamme Blues Фестивале в Нидерландах, участие в радиошоу в Швеции, а также 'гитарных дуэлях "с фронтменом датской группы DAD - Якобом Бинзером, способствуют попаданию имени Тогнони в список" национальных героев Автралии", покоривших "старый свет".
    Новыми дистрибьюторами альбомов Тогнони в Европе становятся лейблы Dixiefrog, Provogue и Blues Boulevard Records, (Music Avenue) выпустившие очередные 4 альбома музыканта. Новый альбом Тогнони "2010db" 2009 -го вышел на Music Avenue и закреплен апрельскими гастролями по Великобритании 2010 - го, 12-го апреля Тогнони вернулся на родину в Австралию. Гастрольный тур продолжится 19 августа во Франции…….

    Vinyl, Cassette Singles & EPs:

    CROCODILE COUNTRY - 7" Single, '86 Australia (Sundown)
    I GOT YOU - YOU GOT ME - 7" Single, '89 Australia (Sundown)
    I GOT YOU - YOU GOT ME - CD, 12", 7" EP - The Angels "Dogs Are Talking", '90 Australia (Mushroom/Festival)
    UGLIER THAN SIN - Cassette "EP", '91 Australia (Independent)
    STONES & COLOURS - CD Single, '97 UK, Europe (Provogue)

    STONES & COLOURS - CD, '95 UK, Europe (Provogue)
    HEADSTRONG - CD, '97 UK, Europe (Provogue)
    LIVE AT THE TWILIGHT - CD, '99 UK, Europe (Provogue)
    MONKEYGRINDER - CD, '01 UK, Europe (Provogue)
    RETRO SHAKIN' - CD, '03 UK, Europe (Independent)
    SHAKIN' THE DEVIL'S HAND - LIVE - CD, '05 UK, Europe, US, Canada (Dixiefrog)
    CAPITAL WAH - CD, '08 World (Music Avenue)
    THE IRONYARD - REVISITED - CD, '08 World (Music Avenue)
    2010dB - CD, '09 World (Music Avenue)
    ROCK AND ROLL LIVE - Double CD, '10 World (Music Avenue)
    ENERGY RED - CD, '12 UK, Europe (Dixiefrog)

    MELBOURNE 5 - CD, Various, '93 Australia (St. Andrews Studio / Independent)
    WHERE BLUES MEETS ROCK 2 - CD, Various, '96 UK, Europe (Provogue)
    WHERE BLUES MEETS ROCK 3 - CD, Various, '97 UK, Europe (Provogue)
    WHERE BLUES MEETS ROCK 4 - CD, Various, '01 UK, Europe (Provogue)
    WHERE BLUES MEETS ROCK 5 - CD, Various, '03 UK, Europe (Provogue)
    THE FINEST OF HARD ROCK VOL. 4 - CD, Various, '98 World (EMI)
    PIEKARSKIE WIECZORY BLUESOWE VOL. 1 - CD, Various, '05 Poland (Andaluzja)
    PIEKARSKIE WIECZORY BLUESOWE VOL. 2 - CD, Various, '08 Poland (Andaluzja)

    SPEARFISH - "Back, For The Future" - CD, '03 Sweden (Sweden Rock)
    MAX MEAZZA & PUEBLO - "Race Against Destiny" - CD, '09 Italy (Desolation Angels)

    Релиз представлен группой: