File-Portal

Leprous Дискография Скачать Торрент

Рейтинг: 5.0/5.0 (36 проголосовавших)

Категория: Торрент-файлы

Описание

Скачать музыку Leprous - Дискография (2006) через торрент

Скачать музыку Leprous - Дискография / [2006 - 2017, Progressive Metal, MP3] - торрент

Leprous - Дискография
Формат: MP3, tracks, 320kbps
Год выпуска: 2006 - 2017
Страна: Норвегия
Жанр: Progressive Metal
Продолжительность: 08:00:22
Описание:


01. Disclosure
02. Black Stains
03. Last Word
04. Aeolus Shadow
05. The Great Beast
06. Indecisive
07. Close Your Heart
08. Deformed Beauty
09. Eye Of The Storm

2009 - Tall Poppy Syndrome, 01


01. Passing
02. Phantom Pain
03. Dare You
04. Fate
05. He Will Kill Again
06. Not Even A Name
07. Tall Poppy Syndrome
08. White

2011 - Bilateral, 00


01. Bilateral
02. Forced Entry
03. Restless
04. Thorn
05. Mb. Indifferentia
06. Waste Of Air
07. Mediocrity Wins
08. Cryptogenic Desires
09. Acquired Taste
10. Painful Detour


01. Foe
02. Chronic
03. Coal
04. The Cloak
05. The Valley
06. Salt
07. Echo
08. Contaminate Me
09. Bury

2015 - The Congregation, 01


01. The Price
02. Third Law
03. Rewind
04. The Flood
05. Triumphant
06. Within My Fence
07. Red
08. Slave
09. Moon
10. Down
11. Lower
12. Pixel

2016 - Live At Rockefeller Music Hall, 01


01. The Flood
02. Foe
03. Third Law
04. Rewind
05. The Cloak
06. Acquired Taste
07. Red
08. Slave
09. The Price
10. Moon
11. Down
12. The Valley
13. Forced Entry
14. Contaminate Me


01. Bonneville
02. Stuck
03. From The Flame
04. Captive
05. Illuminate
06. Leashes
07. Mirage
08. Malina
09. Coma
10. The Weight Of Disaster
11. The Last Milestone
12. Root

Информация о торренте:

Размер содержимого: 1.1 GB
Скачан: 7 раз
Статус: Проверен Зарегистрирован на трекере: 2017-09-01 20:47

Leprous дискография скачать торрент:

  • скачать
  • скачать
  • Другие статьи

    Скачать музыка Leprous - Дискография 2011 - ТОРРЕНТИНО - торрент трекер

    (Progressive Metal / Avant-Garde) Leprous - Дискография / Discography - 3 релиза - 2006-2011, MP3, 320 kbps

    Тип рипа: tracks

    Битрейт аудио: 320 kbps

    Наличие сканов в содержимом раздачи: да

    Коллектив «Leprous» родом из норвежского металического города Нутодден - родного дома таких групп, как «Emperor», «Zyklon», «Ihsahn», «Peccatum» и многих других.

    Со дня основания «Leprous» в 2001 г. произошло несколько изменений в составе, и теперь он следующий: Einar Solberg (vocals, keyboards), Tor Oddmund Suhrke (guitar, vocals), Oystein Landsverk (guitar, backing vocals), Tobias Ornes Andersen (drums) и Rein T. Blomquist (bass). Возраст участников от 19 до 24 лет.

    Молодой квинтет уже засветился на норвежской прогрессив- и металической сцене, дважды группа завершала «Norwegian Rock Championship». Кроме того «Leprous» в настоящее время работают как сессионные музыканты проекта «Ihsahn», также известного как фронтмена легендарной блэк-метал-группы «Emperor».

    «Эта группа звучит как никакая другая и, вероятно, пойдет далеко. » Ингви М. Якобсен (www.heavymetal.no)

    В августе 2008, «Leprous» сделали запись их дебютного альбома «Tall Poppy Syndrome». В результате они попались на глаза нескольким компаниям звукозаписи и закончили подписанием контракта с американским лейблом «Sensory Records» для релиза в мае 2009.

    До «Tall Poppy Syndrome», «Leprous» сделали две демозаписи, обе получившие заслуженные награды от международных СМИ, с демо (самостоятельно профинансированный полнометражный альбом) «Aeolia» получившим 10 баллов из 10 среди всех обзоров в норвежском интернет-журнале «www.metal-norge.no». Группа в тот момент решила приостановить поиски лейбла по выпуску их альбомов, поскольку они знали, что могли создать лучшие вещи. И теперь несколько лет спустя «Tall Poppy Syndrome» готов сотрясти полки.

    При поддержке «Intromental Management & Booking Agency», «Leprous» провели 2009 год в промо-турах по Скандинавии, и входя в 2010 г. группа и весь менеджмент вынашивали планы по продвижению музыки «Leprous» дальше - по Европе и США, одновременно позиционируя группу как основной разогрев для шведской команды «Therion» в их осеннем туре по Европе 2010, что составляло 17 стран за 30 дней.

    Музыка «Leprous» не поддается стандартной классификации. В ней присутствуют различные жанры: от прогрессив-рока до джаза и чистого металла. Сравнение «Leprous» с другими группами некорректно, но самые близкие группы - это «Opeth», «Arcturus», «Porcupine Tree», «Van Der Graaf Generator», «Emperor». Интересный опыт для непредубежденного слушателя.

    Black Stains [00:04:49]

    Last Word [00:03:19]

    Aeolus Shadow [00:07:16]

    Progressive Metal) Leprous - Дискография (3 CD, 2006 - 2011), FLAC (image

    Треклист:
    01. Passing [00:08:31]
    02. Phantom Pain [00:06:50]
    03. Dare You [00:06:45]
    04. Fate [00:04:38]
    05. He Will Kill Again [00:07:31]
    06. Not Even A Name [00:08:46]
    07. Tall Poppy Syndrome [00:08:28]
    08. White [00:11:31]


    Exact Audio Copy V0.99 prebeta 5 from 4. May 2009

    EAC extraction logfile from 6. May 2011, 21:26

    Leprous / Tall Poppy Syndrome

    Used drive. PIONEER DVD-RW DVR-111D Adapter: 1 ID: 0

    Read mode. Secure
    Utilize accurate stream. Yes
    Defeat audio cache. Yes
    Make use of C2 pointers. No

    Read offset correction. 48
    Overread into Lead-In and Lead-Out. No
    Fill up missing offset samples with silence. Yes
    Delete leading and trailing silent blocks. No
    Null samples used in CRC calculations. No
    Used interface. Native Win32 interface for Win NT & 2000

    Used output format. User Defined Encoder
    Selected bitrate. 32 kBit/s
    Quality. High
    Add ID3 tag. No
    Command line compressor. D:\Program Files 2\Exact Audio Copy\FLAC\FLAC.EXE
    Additional command line options. -6 -V %s

    TOC of the extracted CD

    Track | Start | Length | Start sector | End sector
    ---------------------------------------------------------
    1 | 0:00.00 | 8:31.21 | 0 | 38345
    2 | 8:31.21 | 6:50.67 | 38346 | 69162
    3 | 15:22.13 | 6:45.30 | 69163 | 99567
    4 | 22:07.43 | 4:38.32 | 99568 | 120449
    5 | 26:46.00 | 7:31.59 | 120450 | 154333
    6 | 34:17.59 | 8:46.32 | 154334 | 193815
    7 | 43:04.16 | 8:28.01 | 193816 | 231916
    8 | 51:32.17 | 11:31.64 | 231917 | 283805

    Range status and errors

    Filename D:\MusicFiles\FLAC Temp MetalMadness\LEPROUS [2009] [CD] Tall Poppy Syndrome [EAC_FLAC] by BACKLASH [MeTaLMaDNeSS.TeaM]\Leprous - Tall Poppy Syndrome.wav

    Peak level 99.1 %
    Range quality 99.8 %
    Copy CRC F4586790
    Copy OK

    No errors occurred

    Track 1 accurately ripped (confidence 8) [E2EA245F]
    Track 2 accurately ripped (confidence 8) [30AB4835]
    Track 3 accurately ripped (confidence 8) [A6376A28]
    Track 4 accurately ripped (confidence 7) [E7807C5D]
    Track 5 accurately ripped (confidence 8) [596634B2]
    Track 6 accurately ripped (confidence 8) [3CA21838]
    Track 7 accurately ripped (confidence 8) [7EE937E5]
    Track 8 accurately ripped (confidence 7) [E9319E7E]

    All tracks accurately ripped

    End of status report

    [Verification date: 24.08.2011 19:30:49]
    [Disc ID: 00122de8-0079b832-6d0ec808]
    Track [ CRC ] Status
    01 [e2ea245f] (08/10) Accurately ripped as in pressing(s) #1
    02 [30ab4835] (08/10) Accurately ripped as in pressing(s) #1
    03 [a6376a28] (08/10) Accurately ripped as in pressing(s) #1
    04 [e7807c5d] (07/09) Accurately ripped as in pressing(s) #1
    05 [596634b2] (08/10) Accurately ripped as in pressing(s) #1
    06 [3ca21838] (08/10) Accurately ripped as in pressing(s) #1
    07 [7ee937e5] (08/10) Accurately ripped as in pressing(s) #1
    08 [e9319e7e] (07/09) Accurately ripped as in pressing(s) #1

    Track [ CRC32 ] [W/O NULL] [ LOG ]
    -- [6CE7A1F6] [F4586790] W/O NULL
    01 [09CE145A] [E74B1F4D]
    02 [BDEBEBE5] [B50E3355]
    03 [C4176645] [E7857363]
    04 [CBA4130B] [30098FAB]
    05 [224A6F21] [BB46BE3E]
    06 [FE28FE27] [64E65634]
    07 [98978D10] [C637AB85]
    08 [419F7972] [7932498C]

    Треклист:
    01. Bilateral [00:04:00]
    02. Forced Entry [00:10:20]
    03. Restless [00:03:30]
    04. Thorn [00:05:47]
    05. Mb. Indifferentia [00:06:33]
    06. Waste Of Air [00:05:32]
    07. Mediocrity Wins [00:06:07]
    08. Cryptogenic Desires [00:02:45]
    09. Acquired Taste [00:05:13]
    10. Painful Detour [00:08:18]

    Exact Audio Copy V1.0 beta 3 from 29. August 2011

    EAC extraction logfile from 12. October 2011, 19:51

    Used drive. TSSTcorpDVD+-RW TS-L632H Adapter: 1 ID: 0

    Read mode. Secure
    Utilize accurate stream. Yes
    Defeat audio cache. Yes
    Make use of C2 pointers. No

    Read offset correction. 6
    Overread into Lead-In and Lead-Out. No
    Fill up missing offset samples with silence. Yes
    Delete leading and trailing silent blocks. No
    Null samples used in CRC calculations. Yes
    Used interface. Native Win32 interface for Win NT & 2000

    Used output format. User Defined Encoder
    Selected bitrate. 768 kBit/s
    Quality. High
    Add ID3 tag. No
    Command line compressor. C:\My Program Files\Exact Audio Copy\FLAC\FLAC.EXE
    Additional command line options. -6 -V -T "ARTIST=%artist%" -T "TITLE=%title%" -T "ALBUM=%albumtitle%" -T "DATE=%year%" -T "TRACKNUMBER=%tracknr%" -T "GENRE=%genre%" -T "COMMENT=%comment%" -T "BAND=%albuminterpret%" -T "ALBUMARTIST=%albuminterpret%" -T "COMPOSER=%composer%" %haslyrics%--tag-from-file=LYRICS="%lyricsfile%"%haslyrics% -T "DISCNUMBER=%cdnumber%" -T "TOTALDISCS=%totalcds%" -T "TOTALTRACKS=%numtracks%" %hascover%--picture="%coverfile%"%hascover% %source% -o %dest%

    TOC of the extracted CD

    Track | Start | Length | Start sector | End sector
    ---------------------------------------------------------
    1 | 0:00.00 | 4:00.12 | 0 | 18011
    2 | 4:00.12 | 10:20.49 | 18012 | 64560
    3 | 14:20.61 | 3:30.61 | 64561 | 80371
    4 | 17:51.47 | 5:47.69 | 80372 | 106465
    5 | 23:39.41 | 6:33.39 | 106466 | 135979
    6 | 30:13.05 | 5:32.47 | 135980 | 160926
    7 | 35:45.52 | 6:07.03 | 160927 | 188454
    8 | 41:52.55 | 2:45.07 | 188455 | 200836
    9 | 44:37.62 | 5:13.10 | 200837 | 224321
    10 | 49:50.72 | 8:18.55 | 224322 | 261726

    Range status and errors

    Filename C:\My Program Files\Exact Audio Copy\Flac\Leprous - Bilateral.wav

    Peak level 99.2 %
    Extraction speed 4.3 X
    Range quality 100.0 %
    Test CRC 008E1B39
    Copy CRC 008E1B39
    Copy OK

    No errors occurred

    Track 1 not present in database
    Track 2 not present in database
    Track 3 not present in database
    Track 4 not present in database
    Track 5 not present in database
    Track 6 not present in database
    Track 7 not present in database
    Track 8 not present in database
    Track 9 not present in database
    Track 10 not present in database

    None of the tracks are present in the AccurateRip database

    End of status report

    ==== Log checksum CD0DAFD35782D92D51E0AFDE8F9C329C5663D456816E07D51E7464EDBF5F8B77 ====

    [Verification date: 19.10.2011 17:34:05]
    [Disc ID: 0015ff7b-00aeea75-840da10a]
    Disk not present in database.

    Track [ CRC32 ] [W/O NULL] [ LOG ]
    -- [008E1B39] [AC87ED0E] CRC32
    01 [74D46BAE] [492973AF]
    02 [7D8268A2] [5208716B]
    03 [663C96D6] [47C2E99B]
    04 [FEB3AB32] [CD535A2C]
    05 [A6A69EE6] [173E4FE2]
    06 [D8217BCE] [CC9AA10C]
    07 [51F759F0] [A0961FFB]
    08 [2FC0965F] [3A75D093]
    09 [85F5386C] [86A05CEE]
    10 [68E06DFA] [55D30DC9]

    Скачать Leprous - Malina (2017) MP3 бесплатно через торрент


    Норвежская метал-группа Leprous выпустила свой новый альбом получивший название 'Malina'. Это 6 альбом группы основанной 2001 году.


    01. Bonneville - 05:28
    02. Stuck - 06:48
    03. From The Flame - 03:51
    04. Captive - 03:43
    05. Illuminate - 04:21
    06. Leashes - 04:09
    07. Mirage - 06:48
    08. Malina - 06:15
    09. Coma - 03:55
    10. The Weight Of Disaster - 06:00
    11. The Last Milestone - 07:30

    Исполнитель: Leprous
    Альбом: Malina
    Страна исполнителя (группы): Norway (Notodden)
    Издатель (лейбл): InsideOut Music
    Жанр: Progressive Metal

    Аудио кодек: MP3
    Биттрейт: 320 kbps
    Продолжительность: 00:58:54

    Вернуться

    Если вам понравилась Leprous - Malina (2017) MP3 пожалуйста, нажмите на кнопку поделиться с друзьями. Эта игра только для НАСТОЯЩИХ мужиков!

    Leprous - Malina (2017) MP3

    Rutracker2.org - зеркало Rutracker и Rutor. Лучший поисковик торрентов в интернете. Leprous - Malina (2017) MP3 Leprous - Malina (2017) MP3

    Исполнитель: Leprous
    Альбом: Malina
    Страна исполнителя (группы): Norway (Notodden)
    Издатель (лейбл): InsideOut Music
    Жанр: Progressive Metal Краткое описание: Норвежская метал-группа Leprous выпустила свой новый альбом получивший название "Malina". Это 6 альбом группы основанной 2001 году.

    Аудио кодек: MP3
    Биттрейт: 320 kbps
    Продолжительность: 00:58:54
    01. Bonneville - 05:28
    02. Stuck - 06:48
    03. From The Flame - 03:51
    04. Captive - 03:43
    05. Illuminate - 04:21
    06. Leashes - 04:09
    07. Mirage - 06:48
    08. Malina - 06:15
    09. Coma - 03:55
    10. The Weight Of Disaster - 06:00
    11. The Last Milestone - 07:30
    Текущий состав:
    * Baard Kolstad. Барабаны
    * Robin Ognedal. Гитара
    * Simen Borven. Бас-гитара
    * Einar Solberg. Вокал, Клавишные
    * Tor Oddmund Suhrke. Вокал, Гитара

    Поиск торрент раздач, пожалуйста подождите!

    Altair - Descending: A Devilish Comedy (2017) MP3

    Anthriel - Transcendence (2017) MP3

    Riverdogs - California (2017) MP3

    Voyager - Ghost Mile (2017) MP3

    Mean Streak - Blind Faith (2017) MP3


    У вас возникают проблемы с rutor или rutacker? Наше рутрекер зеркало, rutracker org зеркало или рутор орг зеркало, созданное поклонниками знаменитых трекеров и энтузиастами, называйте как хотите, всегда доступно! Мы работаем 24/7! У Вас рутрекер не открывается? - добро пожаловать к нам! Хотите скачать сериалы или фильмы в хрошем качестве? Игры для PC или софт? Это все и многое-многое другое у нас есть!

    Вся информация и файлы размещенные на сайте взяты из открытых источников (торрент-трекеров Rutracker и Rutor). Т.е. мы не храним на сервере никаких запрещенных файлов.