File-Portal

Скачать Pakarina Торрент

Рейтинг: 4.5/5.0 (395 проголосовавших)

Категория: Торрент-файлы

Описание

Pakarina - биография, онлайн биография, музыка

Все участники группы приехали из Эквадора. Инти и Альпа - уроженцы пуэбло Камуэндо, находящегося недалеко от городка Отавало, у подножья горы Имбабура, на берегу озера Имбакоча (Сан Пабло).

Группа «Pakarina” исполняют древнюю традиционную музыку Анд, нью-эйдж, аранжировки популярных мелодий, исполняемые на этнических инструментах.

Группа постоянно выступает у различных станций метро в Санкт-Петербурге с национальными музыкальными инструментами, собирая большие толпы слушателей.
У группы есть официальная страничка Вконтакте.

Жанр: NewAge, Ethnic, Panflute, Instrumental
Музыкальные инструменты: samponas, toyos, quena, quenacho, charango, acoustic guitar, bass, batteria, syntheizer
Efectos: Palo de lluvias, chacchas, pitos, pajaritos and okarina.

На данный момент у группы пять аудио альбомов:

2007 - Melodies of the Heart
2010 - Panflute Melodies
Melodies with pan flute
Indians
Meditation

И один видео альбом:

скачать pakarina торрент:

  • скачать
  • скачать
  • Другие статьи

    Скачать музыку Pakarina - дискография (2010) через торрент

    Скачать музыку Pakarina - дискография (5 альбомов) / [2010-2012, Ethnic, Panflute, Instrumenta, MP3] - торрент

    Pakarina - дискография (5 альбомов)
    Формат: MP3, tracks, 320kbps
    Год выпуска: 2010-2012
    Страна: Эквадор
    Жанр: Ethnic. Panflute. Instrumenta
    Продолжительность: 05:55:46
    Описание:


    01. Wakan Tanka
    02. Braveheart
    03. Circle
    04. DreamCatcher
    05. Jichushca Guambragu
    06. Kallaryk
    07. Love Mountain
    08. Mohicans
    09. Qapac nan
    10. Relampago
    11. Sunquiman
    12. The Song Of The Sun
    13. Amanecer
    14. Wayrapa Musputnin

    Panflute Melodies, 2010, 01


    01. Sound of the Silence
    02. Let It Be
    03. Unchained Melody
    04. Imagine
    05. Aicha
    06. Vasija De Barro
    07. House of the Rising Sun
    08. Hotel California
    09. Chiquitita
    10. The Power of Good Bye
    11. I Do It for You
    12. Ocarina
    13. Moonlight Shadow
    14. Wind of Change
    15. Fernando

    Melodies of the heart, 2011, 01


    01. Condor pasa
    02. Ave Maria
    03. Besame mucho
    04. Wonderful life
    05. Pakarina
    06. Armonia song
    07. Now we are free
    08. Pastor Solitario
    09. Camuendo tio
    10. San Juan 3 notas
    11. Viva forever
    12. Romeo Julieta
    13. My heart will go on
    14. El Tren Que Nas Separa

    Melodies with pan flute, 2011, 01


    01. Paraiso
    02. Alegria
    03. Dorado
    04. Otro Amor
    05. Mi Pequena
    06. Pokahontas
    07. One Of Us
    08. Angeel
    09. Casorio
    10. Goodbye Mi Love
    11. Katalina
    12. Rebelde
    13. Isla Bonita
    14. Heroe

    Meditation, 2012, 01


    01. Way of life
    02. Children
    03. Pobre corazon
    04. Tayta huamany
    05. Sacred moon
    06. Movimiento indigena
    07. Ay wuay
    08. The lastinca warrior ''siwar''
    09. Sweetheart ''merceditas''
    10. Sad heart
    11. The new beginning
    12. Huanuy causay punuy
    13. Puyumuyumuhuan
    14. Clouds of the sunset
    15. May you walk in sunshine

    Все три участника группы приехали из Эквадора. Инти и Альпа - уроженцы пуэбло Камуэндо, находящегося недалеко от городка Отавало, у подножья горы Имбабура, на берегу озера Имбакоча (Сан Пабло). Группа «Pakarina” исполняют древнюю традиционную музыку Анд, нью-эйдж, аранжировки популярных мелодий, исполняемые на этнических инструментах. © Lastfm

    Информация о торренте:

    Размер содержимого: 828.9 MB
    Скачан: 802 раза
    Статус: Проверен Зарегистрирован на трекере: 2014-12-27 16:02

    Pakarina - Дискография (2010-2012) MP3, 831 MB

    2010 Indians (1:15:56)
    01. Wakan Tanka (05:49)
    02. Braveheart (05:01)
    03. Circle (04:29)
    04. DreamCatcher (05:27)
    05. Jichushca Guambragu (05:26)
    06. Kallaryk (04:57)
    07. Love Mountain (05:52)
    08. Mohicans (04:38)
    09. Qapac nan (05:07)
    10. Relampago (06:03)
    11. Sunquiman (06:18)
    12. The Song Of The Sun (04:27)
    13. Amanecer (06:04)
    14. Wayrapa Musputnin (06:22)

    2010 Panflute Melodies (1:10:17)
    01. Sound of the Silence (04:08)
    02. Let It Be (04:04)
    03. Unchained Melody (03:43)
    04. Imagine (03:40)
    05. Aicha (04:45)
    06. Vasija De Barro (05:50)
    07. House of the Rising Sun (04:32)
    08. Hotel California (06:47)
    09. Chiquitita (05:20)
    10. The Power of Good Bye (04:45)
    11. I Do It for You (05:17)
    12. Ocarina (05:16)
    13. Moonlight Shadow (03:14)
    14. Wind of Change (05:11)
    15. Fernando (03:49)

    2011 Melodies of the heart (1:13:07)
    01. Condor pasa (03:47)
    02. Ave Maria (04:29)
    03. Besame mucho (04:48)
    04. Wonderful life (04:57)
    05. Pakarina (04:39)
    06. Armonia song (05:42)
    07. Now we are free (08:04)
    08. Pastor Solitario (05:10)
    09. Camuendo tio (04:32)
    10. San Juan 3 notas (06:52)
    11. Viva forever (05:18)
    12. Romeo Julieta (04:45)
    13. My heart will go on (04:54)
    14. El Tren Que Nas Separa (05:15)

    2011 Melodies with pan flute (1:00:39)
    01. Paraiso (04:52)
    02. Alegria (05:43)
    03. Dorado (04:49)
    04. Otro Amor (03:45)
    05. Mi Pequena (03:34)
    06. Pokahontas (04:21)
    07. One Of Us (05:04)
    08. Angeel (03:43)
    09. Casorio (05:20)
    10. Goodbye Mi Love (03:43)
    11. Katalina (04:05)
    12. Rebelde (04:02)
    13. Isla Bonita (03:27)
    14. Heroe (04:15)

    2012 Meditation (1:15:45)
    01. Way of life (04:45)
    02. Children (06:14)
    03. Pobre corazon (03:56)
    04. Tayta huamany (05:15)
    05. Sacred moon (04:43)
    06. Movimiento indigena (04:09)
    07. Ay wuay (04:39)
    08. The lastinca warrior ''siwar'' (04:33)
    09. Sweetheart ''merceditas'' (05:43)
    10. Sad heart (04:50)
    11. The new beginning (05:19)
    12. Huanuy causay punuy (05:05)
    13. Puyumuyumuhuan (06:37)
    14. Clouds of the sunset (05:07)
    15. May you walk in sunshine (04:50)

    Скачать pakarina торрент

    Selena875 · 04-Июл-11 16:03 (6 лет 2 месяца назад, ред. 08-Июл-11 22:57)

    Pakarina / Melodies of the heart
    Жанр. Ethnic/Panflute/Instrumental
    Страна-производитель диска. Эквадор
    Год издания диска. 2011
    Страна. Ecuador
    Аудиокодек. FLAC (*.flac)
    Тип рипа. tracks+.cue
    Битрейт аудио. lossless
    Продолжительность. 73 мин
    Источник (релизер). CD
    Наличие сканов в содержимом раздачи. нет
    Треклист :
    01 Condor Pasa
    02 Ave Maria
    03 Besame Mucho
    04 Wonderful Live
    05 Pakarina
    06 Armonia Song
    07 Now We Are Free
    08 Pastor Solitorio
    09 Camuendo Tio
    10 San Juan 3 Notas
    11 Viva Forever
    12 Romeo Julieta
    13 My Heart Will Go On
    14 El Tren Que Nos Separa

    Лог создания рипа

    REM GENRE Ethnic
    REM DATE 2011
    REM DISCID D111220E
    REM COMMENT "ExactAudioCopy v1.0b2"
    PERFORMER "Pakarina"
    TITLE "Melodies of the heart"
    FILE "(01) Condor pasa - Pakarina.wav" WAVE
    TRACK 01 AUDIO
    TITLE " Condor pasa"
    PERFORMER "Pakarina"
    INDEX 01 00:00:00
    FILE "(02) Ave Maria - Pakarina.wav" WAVE
    TRACK 02 AUDIO
    TITLE " Ave Maria"
    PERFORMER "Pakarina"
    INDEX 01 00:00:00
    FILE "(03) Besame mucho - Pakarina.wav" WAVE
    TRACK 03 AUDIO
    TITLE "Besame mucho"
    PERFORMER "Pakarina"
    INDEX 01 00:00:00
    FILE "(04) Wonderful life - Pakarina.wav" WAVE
    TRACK 04 AUDIO
    TITLE "Wonderful life"
    PERFORMER "Pakarina"
    INDEX 01 00:00:00
    FILE "(05) Pakarina - Pakarina.wav" WAVE
    TRACK 05 AUDIO
    TITLE " Pakarina"
    PERFORMER "Pakarina"
    INDEX 01 00:00:00
    FILE "(06) Armonia song - Pakarina.wav" WAVE
    TRACK 06 AUDIO
    TITLE "Armonia song"
    PERFORMER "Pakarina"
    INDEX 01 00:00:00
    FILE "(07) Now we are free - Pakarina.wav" WAVE
    TRACK 07 AUDIO
    TITLE " Now we are free"
    PERFORMER "Pakarina"
    INDEX 01 00:00:00
    FILE "(08) Pastor Solitario - Pakarina.wav" WAVE
    TRACK 08 AUDIO
    TITLE "Pastor Solitario"
    PERFORMER "Pakarina"
    INDEX 01 00:00:00
    FILE "(09) Camuendo tio - Pakarina.wav" WAVE
    TRACK 09 AUDIO
    TITLE "Camuendo tio"
    PERFORMER "Pakarina"
    INDEX 01 00:00:00
    FILE "(10) San Juan 3 notas - Pakarina.wav" WAVE
    TRACK 10 AUDIO
    TITLE "San Juan 3 notas"
    PERFORMER "Pakarina"
    INDEX 01 00:00:00
    FILE "(11) Viva forever - Pakarina.wav" WAVE
    TRACK 11 AUDIO
    TITLE "Viva forever"
    PERFORMER "Pakarina"
    INDEX 01 00:00:00
    FILE "(12) Romeo Julieta - Pakarina.wav" WAVE
    TRACK 12 AUDIO
    TITLE "Romeo Julieta"
    PERFORMER "Pakarina"
    INDEX 01 00:00:00
    FILE "(13) My heart will go on - Pakarina.wav" WAVE
    TRACK 13 AUDIO
    TITLE "My heart will go on"
    PERFORMER "Pakarina"
    INDEX 01 00:00:00
    FILE "(14) El Tren Que Nas Separa - Pakarina.wav" WAVE
    TRACK 14 AUDIO
    TITLE "El Tren Que Nas Separa"
    PERFORMER "Pakarina"
    INDEX 01 00:00:00

    Скачать раздачу по magnet-ссылке · 458 MB

    Чтобы скачать .torrent файл необходима регистрация

    Аудиокодек: FLAC (*.flac)

    У Вас в раздаче. wav Нужно перекодировать в. flac и создать новый торрент-файл.
    Похоже в программе EAC не настроен параметр кодирования, если конечно Вы хотите сами кодировать после снятия рипа.
    Для настройки нажмите клавишу F11 и перейдите в закладку External Compression
    А дальше можно посмотреть здесь под спойлером Настройка ЕАС V1.0 beta 2 и далее под спойлером Параметры сжатия
    На будущее, в названиях трека не нужно прописывать номер трека.
    -----------------------------------------------------------------------------------------------------------
    Selena875 Вроде всё в порядке.
    Можете подправить под спойлером Лог создания рипа в конце этой сточки Конец отчёта поставьте вот этот знак:

    [/pre]
    Выглядеть должно так:
    Конец отчёта[/pre]

    Почитать об этом параметре можно здесь.
    Благодарю за альбом.

    Стаж: 8 лет 1 месяц

    Real_Racot · 06-Авг-11 21:15 (спустя 30 дней)

    Спасибо за замечательную раздачу!
    Великолепная у ребят получилась пластинка!
    Среди кучи хлама дешевых перепевок и трибьютов исполненных неизвестно кем и непонятно на чём, встречаются невероятно редкие самобытные жемчужины. Это одна из них!
    Такой великолепной, трогающей за душу и артистичной аранжировки Wonderful Live от Black я никогда не слышал! Это лучший трибьют Black!
    А как ребята бережно подошли и красиво исполнили композицию Now We Are Free Лизы Джерральд (Lisa Gerrald - ex. Dead Can Dance)!
    Now We Are Free - звуковая дорожка из фильма "Гладиатор" вышла отдельным самобытным произведением.
    У ребят из группы Pakarina, по их словам (удалось послушать в живую и немного пообщаться), на сегодня всего 4 альбома.
    "Melodies of the heart" - это самый первый альбом Pakarina. Диск был выпущен в 2009 году, а записан годом ранее.
    два выпущенных в 2010 году - "Panflute Melodies" и название второго, "индейского", альбома, к сожалению не помню
    . а в 2011 году у них вышел четвертый, "индейский", альбом "Indians", который постараюсь выложить на днях.

    Pakarina - Panflute Melodies (2010

    Раздача является мультитрекерной — учтите, количество раздающих не будет совпадать с количеством участников на сайте (скачивание на клиентской стороне зависит от настроек µTorrent клиент программы, настройки -> Включить DHT, Обмен пирами и Поиск лок-х пиров).
    Если висит надпись, пиры по нулям - не бойтесь, возможность скачать повторно раздачу - есть. Попробуйте, в случае отказа - прокоментируйте или нажмите на "Позвать скачавших".

    Скачать .torrent файл (основная ссылка для скачивания файла)
    Смотреть / Слушать онлайн просмотр (ссылка для просмотра файла через плагин 'Torrent Stream')
    Magnet-ссылка (альтернативная ссылка для скачивания файла)

    Piese populare din diferii ani, interpretate n stil american-nativ.


    Instruments. Samponas, toyos, quena, quenacho, charango, acoustic guitar.
    Efectos. Palo de lluvias, chacchas, pitos, pajaritos and okarina.


    01. Pakarina - Sound of the Silence - 810 kbps; 23,90 Mb [04:07]
    02. Pakarina - Let It Be - 844 kbps; 24,55 Mb [04:03]
    03. Pakarina - Unchained Melody - 979 kbps; 26,02 Mb [03:42]
    04. Pakarina - Imagine - 935 kbps; 24,53 Mb [03:39]
    05. Pakarina - Aicha - 835 kbps; 28,40 Mb [04:45]
    06. Pakarina - Vasija De Barno - 928 kbps; 38,73 Mb [05:49]
    07. Pakarina - House of the Rising Sun - 879 kbps; 28,46 Mb [04:31]
    08. Pakarina - Hotel California - 866 kbps; 41,99 Mb [06:46]
    09. Pakarina - Chiquitita - 882 kbps; 33,65 Mb [05:19]
    10. Pakarina - The Power of Good Bye - 836 kbps; 28,42 Mb [04:44]
    11. Pakarina - I Do It for You - 907 kbps; 34,25 Mb [05:16]
    12. Pakarina - Ocarina - 879 kbps; 33,12 Mb [05:15]
    13. Pakarina - Moonlight Shadow - 942 kbps; 21,74 Mb [03:13]
    14. Pakarina - Wind of Change - 829 kbps; 30,76 Mb [05:11]
    15. Pakarina - Fernando - 926 kbps; 25,27 Mb [03:48]

    AUDIOCHECKER v2.0 beta (build 457) - by Dester -opdester@freemail.hu

    -=== DO NOT EDIT THIS FILE! ===-

    Path. Pakarina - Panflute Melodies [FLAC]

    01 -=- 01 Pakarina - Sound of the Silence.flac -=- CDDA (99%)

    02 -=- 02 Pakarina - Let It Be.flac -=- CDDA (100%)

    03 -=- 03 Pakarina - Unchained Melody.flac -=- CDDA (100%)

    04 -=- 04 Pakarina - Imagine.flac -=- CDDA (100%)

    05 -=- 05 Pakarina - Aicha.flac -=- CDDA (100%)

    06 -=- 06 Pakarina - Vasija De Barro.flac -=- CDDA (100%)

    07 -=- 07 Pakarina - House of the Rising Sun.flac -=- CDDA (100%)

    08 -=- 08 Pakarina - Hotel California.flac -=- CDDA (100%)

    09 -=- 09 Pakarina - Chiquitita.flac -=- CDDA (99%)

    10 -=- 10 Pakarina - The Power of Good Bye.flac -=- CDDA (100%)

    11 -=- 11 Pakarina - I Do It for You.flac -=- CDDA (100%)

    12 -=- 12 Pakarina - Ocarina.flac -=- CDDA (100%)

    13 -=- 13 Pakarina - Moonlight Shadow.flac -=- MPEG (95%)

    14 -=- 14 Pakarina - Wind of Change.flac -=- CDDA (100%)

    15 -=- 15 Pakarina - Fernando.flac -=- CDDA (100%)

    Summary 93,53% CDDA

    Нажмите чтобы закрыть спойлер: audiochecker

    Exact Audio Copy V0.99 prebeta 4 from 23. January 2008

    Отчёт EAC об извлечении, выполненном 29. июня 2010, 12:41

    Pakarina / Panflute Melodies

    Дисковод: Optiarc DVD RW AD-5200A Adapter: 0ID: 0

    Режим чтения. Достоверность

    Использование точного потока. Да

    Отключение кэша аудио: Да

    Использование указателей C2: Нет

    Коррекция смещения при чтении. 48

    Способность читать области Lead-in и Lead-out. Нет

    Заполнение пропущенных сэмплов тишиной: Да

    Удаление блоков с тишиной в начале и конце: Нет

    При вычислениях CRC использовались нулевые сэмплы. Да

    Интерфейс. Встроенный Win32-интерфейс для Win NT/2000

    Обработка зазоров. Добавлено к предыдущему треку

    Выходной формат: Пользовательский кодировщик

    Выбранный битрейт: 768 kBit/s

    Добавление ID3-тэга: Нет

    Утилита сжатия. C:Program FilesExact Audio CopyFLACFLAC.EXE

    Дополнительные параметры. -8 -V %s

    TOC извлечённого CD

    Трек | Старт| Длительность | Начальный сектор | Конечный сектор

    1|0:00.00 |4:07.20 | 0|18544

    2|4:07.20 |4:03.50 | 18545|36819

    3|8:10.70 |3:42.56 | 36820|53525

    4| 11:53.51 |3:39.64 | 53526|70014

    5| 15:33.40 |4:45.08 | 70015|91397

    6| 20:18.48 |5:49.57 | 91398| 117629

    7| 26:08.30 |4:31.25 |117630| 137979

    8| 30:39.55 |6:46.47 |137980| 168476

    9| 37:26.27 |5:19.47 |168477| 192448

    10| 42:45.74 |4:44.72 |192449| 213820

    11| 47:30.71 |5:16.45 |213821| 237565

    12| 52:47.41 |5:15.52 |237566| 261242

    13| 58:03.18 |3:13.33 |261243| 275750

    14| 61:16.51 |5:11.09 |275751| 299084

    15| 66:27.60 |3:48.53 |299085| 316237

    Имя файла E:For_UploadLOSSLESS1 Pakarina – Sound of the Silence.wav

    Пиковый уровень 98.8 %

    Качество трека 100.0 %

    CRC теста 6D7E7A7F

    CRC копии 6D7E7A7F

    Трек не обнаружен в базе AccurateRip

    Имя файла E:For_UploadLOSSLESS2 Pakarina – Let It Be.wav

    Пиковый уровень 98.8 %

    Качество трека 100.0 %

    CRC теста 46A24E1C

    CRC копии 46A24E1C

    Трек не обнаружен в базе AccurateRip

    Имя файла E:For_UploadLOSSLESS3 Pakarina – Unchained Melody.wav

    Пиковый уровень 100.0 %

    Качество трека 100.0 %

    CRC теста 3046C659

    CRC копии 3046C659

    Трек не обнаружен в базе AccurateRip

    Имя файла E:For_UploadLOSSLESS4 Pakarina – Imagine.wav

    Пиковый уровень 100.0 %

    Качество трека 100.0 %

    CRC теста 7737740C

    CRC копии 7737740C

    Трек не обнаружен в базе AccurateRip

    Имя файла E:For_UploadLOSSLESS5 Pakarina – Aicha.wav

    Пиковый уровень 100.0 %

    Качество трека 100.0 %

    CRC теста F54083CB

    CRC копии F54083CB

    Трек не обнаружен в базе AccurateRip

    Имя файла E:For_UploadLOSSLESS6 Pakarina – Vasija De Barro.wav

    Пиковый уровень 100.0 %

    Качество трека 100.0 %

    CRC теста 1E2F7CD6

    CRC копии 1E2F7CD6

    Трек не обнаружен в базе AccurateRip

    Имя файла E:For_UploadLOSSLESS7 Pakarina – House of the Rising Sun.wav

    Пиковый уровень 80.6 %

    Качество трека 100.0 %

    CRC теста AEDFA821

    CRC копии AEDFA821

    Трек не обнаружен в базе AccurateRip

    Имя файла E:For_UploadLOSSLESS8 Pakarina – Hotel California.wav

    Пиковый уровень 98.0 %

    Качество трека 100.0 %

    CRC теста D274BABD

    CRC копии D274BABD

    Трек не обнаружен в базе AccurateRip

    Имя файла E:For_UploadLOSSLESS9 Pakarina – Chiquitita.wav

    Пиковый уровень 98.0 %

    Качество трека 100.0 %

    CRC теста E72C8D48

    CRC копии E72C8D48

    Трек не обнаружен в базе AccurateRip

    Имя файла E:For_UploadLOSSLESS10 Pakarina – The Power of Good Bye.wav

    Пиковый уровень 98.0 %

    Качество трека 100.0 %

    CRC теста 02A54168

    CRC копии 02A54168

    Трек не обнаружен в базе AccurateRip

    Имя файла E:For_UploadLOSSLESS11 Pakarina – I Do It for You.wav

    Пиковый уровень 99.9 %

    Качество трека 100.0 %

    CRC теста 6CA05DC4

    CRC копии 6CA05DC4

    Трек не обнаружен в базе AccurateRip

    Имя файла E:For_UploadLOSSLESS12 Pakarina – Ocarina.wav

    Пиковый уровень 99.9 %

    Качество трека 100.0 %

    CRC теста 14CC4049

    CRC копии 14CC4049

    Трек не обнаружен в базе AccurateRip

    Имя файла E:For_UploadLOSSLESS13 Pakarina – Moonlight Shadow.wav

    Пиковый уровень 100.0 %

    Качество трека 100.0 %

    CRC теста E93BDA04

    CRC копии E93BDA04

    Трек не обнаружен в базе AccurateRip

    Имя файла E:For_UploadLOSSLESS14 Pakarina – Wind of Change.wav

    Пиковый уровень 100.0 %

    Качество трека 99.9 %

    CRC теста AF284E62

    CRC копии AF284E62

    Трек не обнаружен в базе AccurateRip

    Имя файла E:For_UploadLOSSLESS15 Pakarina – Fernando.wav

    Пиковый уровень 98.8 %

    Качество трека 100.0 %

    CRC теста DC4BB418

    CRC копии DC4BB418

    Трек не обнаружен в базе AccurateRip

    Ни одного трека нет в базе AccurateRip

    Ошибок не произошло

    Нажмите чтобы закрыть спойлер: EAC log